  0
SECTION
  2
HEADER
  9
$ACADVER
  1
AC1015
  9
$ACADMAINTVER
 70
     6
  9
$DWGCODEPAGE
  3
ANSI_1252
  9
$INSBASE
 10
0.0
 20
0.0
 30
0.0
  9
$EXTMIN
 10
-210.0000000000001
 20
0.0
 30
0.0
  9
$EXTMAX
 10
0.0
 20
297.0000000000001
 30
0.0
  9
$LIMMIN
 10
0.0
 20
0.0
  9
$LIMMAX
 10
12.0
 20
9.0
  9
$ORTHOMODE
 70
     0
  9
$REGENMODE
 70
     1
  9
$FILLMODE
 70
     1
  9
$QTEXTMODE
 70
     0
  9
$MIRRTEXT
 70
     1
  9
$LTSCALE
 40
1.0
  9
$ATTMODE
 70
     1
  9
$TEXTSIZE
 40
0.2
  9
$TRACEWID
 40
0.05
  9
$TEXTSTYLE
  7
Standard
  9
$CLAYER
  8
0
  9
$CELTYPE
  6
ByLayer
  9
$CECOLOR
 62
   256
  9
$CELTSCALE
 40
1.0
  9
$DISPSILH
 70
     0
  9
$DIMSCALE
 40
1.0
  9
$DIMASZ
 40
0.18
  9
$DIMEXO
 40
0.0625
  9
$DIMDLI
 40
0.38
  9
$DIMRND
 40
0.0
  9
$DIMDLE
 40
0.0
  9
$DIMEXE
 40
0.18
  9
$DIMTP
 40
0.0
  9
$DIMTM
 40
0.0
  9
$DIMTXT
 40
0.18
  9
$DIMCEN
 40
0.09
  9
$DIMTSZ
 40
0.0
  9
$DIMTOL
 70
     0
  9
$DIMLIM
 70
     0
  9
$DIMTIH
 70
     1
  9
$DIMTOH
 70
     1
  9
$DIMSE1
 70
     0
  9
$DIMSE2
 70
     0
  9
$DIMTAD
 70
     0
  9
$DIMZIN
 70
     0
  9
$DIMBLK
  1

  9
$DIMASO
 70
     1
  9
$DIMSHO
 70
     1
  9
$DIMPOST
  1

  9
$DIMAPOST
  1

  9
$DIMALT
 70
     0
  9
$DIMALTD
 70
     2
  9
$DIMALTF
 40
25.4
  9
$DIMLFAC
 40
1.0
  9
$DIMTOFL
 70
     0
  9
$DIMTVP
 40
0.0
  9
$DIMTIX
 70
     0
  9
$DIMSOXD
 70
     0
  9
$DIMSAH
 70
     0
  9
$DIMBLK1
  1

  9
$DIMBLK2
  1

  9
$DIMSTYLE
  2
Standard
  9
$DIMCLRD
 70
     0
  9
$DIMCLRE
 70
     0
  9
$DIMCLRT
 70
     0
  9
$DIMTFAC
 40
1.0
  9
$DIMGAP
 40
0.09
  9
$DIMJUST
 70
     0
  9
$DIMSD1
 70
     0
  9
$DIMSD2
 70
     0
  9
$DIMTOLJ
 70
     1
  9
$DIMTZIN
 70
     0
  9
$DIMALTZ
 70
     0
  9
$DIMALTTZ
 70
     0
  9
$DIMUPT
 70
     0
  9
$DIMDEC
 70
     4
  9
$DIMTDEC
 70
     4
  9
$DIMALTU
 70
     2
  9
$DIMALTTD
 70
     2
  9
$DIMTXSTY
  7
Standard
  9
$DIMAUNIT
 70
     0
  9
$DIMADEC
 70
     0
  9
$DIMALTRND
 40
0.0
  9
$DIMAZIN
 70
     0
  9
$DIMDSEP
 70
    46
  9
$DIMATFIT
 70
     3
  9
$DIMFRAC
 70
     0
  9
$DIMLDRBLK
  1

  9
$DIMLUNIT
 70
     2
  9
$DIMLWD
 70
    -2
  9
$DIMLWE
 70
    -2
  9
$DIMTMOVE
 70
     0
  9
$LUNITS
 70
     2
  9
$LUPREC
 70
     4
  9
$SKETCHINC
 40
0.1
  9
$FILLETRAD
 40
0.5
  9
$AUNITS
 70
     0
  9
$AUPREC
 70
     0
  9
$MENU
  1
.
  9
$ELEVATION
 40
0.0
  9
$PELEVATION
 40
0.0
  9
$THICKNESS
 40
0.0
  9
$LIMCHECK
 70
     0
  9
$CHAMFERA
 40
0.5
  9
$CHAMFERB
 40
0.5
  9
$CHAMFERC
 40
1.0
  9
$CHAMFERD
 40
0.0
  9
$SKPOLY
 70
     0
  9
$TDCREATE
 40
2456997.491081123
  9
$TDUCREATE
 40
2456997.449414456
  9
$TDUPDATE
 40
2456997.491081481
  9
$TDUUPDATE
 40
2456997.449414815
  9
$TDINDWG
 40
0.0000000116
  9
$TDUSRTIMER
 40
0.0000000116
  9
$USRTIMER
 70
     1
  9
$ANGBASE
 50
0.0
  9
$ANGDIR
 70
     0
  9
$PDMODE
 70
     0
  9
$PDSIZE
 40
0.0
  9
$PLINEWID
 40
0.0
  9
$SPLFRAME
 70
     0
  9
$SPLINETYPE
 70
     6
  9
$SPLINESEGS
 70
     8
  9
$HANDSEED
  5
671
  9
$SURFTAB1
 70
     6
  9
$SURFTAB2
 70
     6
  9
$SURFTYPE
 70
     6
  9
$SURFU
 70
     6
  9
$SURFV
 70
     6
  9
$UCSBASE
  2

  9
$UCSNAME
  2

  9
$UCSORG
 10
0.0
 20
0.0
 30
0.0
  9
$UCSXDIR
 10
1.0
 20
0.0
 30
0.0
  9
$UCSYDIR
 10
0.0
 20
1.0
 30
0.0
  9
$UCSORTHOREF
  2

  9
$UCSORTHOVIEW
 70
     0
  9
$UCSORGTOP
 10
0.0
 20
0.0
 30
0.0
  9
$UCSORGBOTTOM
 10
0.0
 20
0.0
 30
0.0
  9
$UCSORGLEFT
 10
0.0
 20
0.0
 30
0.0
  9
$UCSORGRIGHT
 10
0.0
 20
0.0
 30
0.0
  9
$UCSORGFRONT
 10
0.0
 20
0.0
 30
0.0
  9
$UCSORGBACK
 10
0.0
 20
0.0
 30
0.0
  9
$PUCSBASE
  2

  9
$PUCSNAME
  2

  9
$PUCSORG
 10
0.0
 20
0.0
 30
0.0
  9
$PUCSXDIR
 10
1.0
 20
0.0
 30
0.0
  9
$PUCSYDIR
 10
0.0
 20
1.0
 30
0.0
  9
$PUCSORTHOREF
  2

  9
$PUCSORTHOVIEW
 70
     0
  9
$PUCSORGTOP
 10
0.0
 20
0.0
 30
0.0
  9
$PUCSORGBOTTOM
 10
0.0
 20
0.0
 30
0.0
  9
$PUCSORGLEFT
 10
0.0
 20
0.0
 30
0.0
  9
$PUCSORGRIGHT
 10
0.0
 20
0.0
 30
0.0
  9
$PUCSORGFRONT
 10
0.0
 20
0.0
 30
0.0
  9
$PUCSORGBACK
 10
0.0
 20
0.0
 30
0.0
  9
$USERI1
 70
     0
  9
$USERI2
 70
     0
  9
$USERI3
 70
     0
  9
$USERI4
 70
     0
  9
$USERI5
 70
     0
  9
$USERR1
 40
18.1
  9
$USERR2
 40
0.0
  9
$USERR3
 40
0.0
  9
$USERR4
 40
0.0
  9
$USERR5
 40
0.0
  9
$WORLDVIEW
 70
     1
  9
$SHADEDGE
 70
     3
  9
$SHADEDIF
 70
    70
  9
$TILEMODE
 70
     1
  9
$MAXACTVP
 70
    64
  9
$PINSBASE
 10
0.0
 20
0.0
 30
0.0
  9
$PLIMCHECK
 70
     0
  9
$PEXTMIN
 10
1.00000000000000E+20
 20
1.00000000000000E+20
 30
1.00000000000000E+20
  9
$PEXTMAX
 10
-1.00000000000000E+20
 20
-1.00000000000000E+20
 30
-1.00000000000000E+20
  9
$PLIMMIN
 10
0.0
 20
0.0
  9
$PLIMMAX
 10
12.0
 20
9.0
  9
$UNITMODE
 70
     0
  9
$VISRETAIN
 70
     1
  9
$PLINEGEN
 70
     0
  9
$PSLTSCALE
 70
     1
  9
$TREEDEPTH
 70
  3020
  9
$CMLSTYLE
  2
Standard
  9
$CMLJUST
 70
     0
  9
$CMLSCALE
 40
1.0
  9
$PROXYGRAPHICS
 70
     1
  9
$MEASUREMENT
 70
     1
  9
$CELWEIGHT
370
    -1
  9
$ENDCAPS
280
     0
  9
$JOINSTYLE
280
     0
  9
$LWDISPLAY
290
     0
  9
$INSUNITS
 70
     4
  9
$HYPERLINKBASE
  1

  9
$STYLESHEET
  1

  9
$XEDIT
290
     1
  9
$CEPSNTYPE
380
     0
  9
$PSTYLEMODE
290
     1
  9
$FINGERPRINTGUID
  2
{B92D7588-715C-4F29-9068-31188919F7B8}
  9
$VERSIONGUID
  2
{FAEB1C32-E019-11D5-929B-00C0DF256EC4}
  9
$EXTNAMES
290
     1
  9
$PSVPSCALE
 40
0.0
  9
$OLESTARTUP
290
     0
  0
ENDSEC
  0
SECTION
  2
CLASSES
  0
CLASS
  1
ACDBDICTIONARYWDFLT
  2
AcDbDictionaryWithDefault
  3
ObjectDBX Classes
 90
        0
280
     0
281
     0
  0
CLASS
  1
VISUALSTYLE
  2
AcDbVisualStyle
  3
ObjectDBX Classes
 90
     4095
280
     0
281
     0
  0
CLASS
  1
MATERIAL
  2
AcDbMaterial
  3
ObjectDBX Classes
 90
     1153
280
     0
281
     0
  0
CLASS
  1
DICTIONARYVAR
  2
AcDbDictionaryVar
  3
ObjectDBX Classes
 90
        0
280
     0
281
     0
  0
CLASS
  1
ACDBPLACEHOLDER
  2
AcDbPlaceHolder
  3
ObjectDBX Classes
 90
        0
280
     0
281
     0
  0
CLASS
  1
LAYOUT
  2
AcDbLayout
  3
ObjectDBX Classes
 90
        0
280
     0
281
     0
  0
ENDSEC
  0
SECTION
  2
TABLES
  0
TABLE
  2
VPORT
  5
8
330
0
100
AcDbSymbolTable
 70
     1
  0
VPORT
  5
29
330
8
100
AcDbSymbolTableRecord
100
AcDbViewportTableRecord
  2
*Active
 70
     0
 10
0.0
 20
0.0
 11
1.0
 21
1.0
 12
-105.0000000000001
 22
148.5000000000001
 13
0.0
 23
0.0
 14
0.5
 24
0.5
 15
0.5
 25
0.5
 16
0.0
 26
0.0
 36
1.0
 17
0.0
 27
0.0
 37
0.0
 40
326.7000000000002
 41
1.60267857142857
 42
50.0
 43
0.0
 44
0.0
 50
0.0
 51
0.0
 71
     0
 72
   100
 73
     1
 74
     3
 75
     0
 76
     0
 77
     0
 78
     0
281
     0
 65
     1
110
0.0
120
0.0
130
0.0
111
1.0
121
0.0
131
0.0
112
0.0
122
1.0
132
0.0
 79
     0
146
0.0
  0
ENDTAB
  0
TABLE
  2
LTYPE
  5
5
330
0
100
AcDbSymbolTable
 70
     8
  0
LTYPE
  5
14
330
5
100
AcDbSymbolTableRecord
100
AcDbLinetypeTableRecord
  2
ByBlock
 70
     0
  3

 72
    65
 73
     0
 40
0.0
  0
LTYPE
  5
15
330
5
100
AcDbSymbolTableRecord
100
AcDbLinetypeTableRecord
  2
ByLayer
 70
     0
  3

 72
    65
 73
     0
 40
0.0
  0
LTYPE
  5
16
330
5
100
AcDbSymbolTableRecord
100
AcDbLinetypeTableRecord
  2
Continuous
 70
     0
  3
Solid line
 72
    65
 73
     0
 40
0.0
  0
LTYPE
  5
3F
330
5
100
AcDbSymbolTableRecord
100
AcDbLinetypeTableRecord
  2
DASHED
 70
     0
  3
Dashed
 72
    65
 73
     2
 40
15.0
 49
7.0
 74
     0
 49
-8.0
 74
     0
  0
LTYPE
  5
40
330
5
100
AcDbSymbolTableRecord
100
AcDbLinetypeTableRecord
  2
DOTTED
 70
     0
  3
Dotted
 72
    65
 73
     2
 40
1.0
 49
0.0
 74
     0
 49
-1.0
 74
     0
  0
LTYPE
  5
41
330
5
100
AcDbSymbolTableRecord
100
AcDbLinetypeTableRecord
  2
DOT_CENTER
 70
     0
  3
Dot_Center
 72
    65
 73
     4
 40
14.0
 49
12.0
 74
     0
 49
-1.0
 74
     0
 49
0.0
 74
     0
 49
-1.0
 74
     0
  0
LTYPE
  5
42
330
5
100
AcDbSymbolTableRecord
100
AcDbLinetypeTableRecord
  2
LONG_DASHED
 70
     0
  3
Long_Dashed
 72
    65
 73
     2
 40
15.0
 49
10.0
 74
     0
 49
-5.0
 74
     0
  0
LTYPE
  5
43
330
5
100
AcDbSymbolTableRecord
100
AcDbLinetypeTableRecord
  2
DASH_CENTER
 70
     0
  3
Dash_Center
 72
    65
 73
     4
 40
14.0
 49
11.0
 74
     0
 49
-1.0
 74
     0
 49
1.0
 74
     0
 49
-1.0
 74
     0
  0
LTYPE
  5
44
330
5
100
AcDbSymbolTableRecord
100
AcDbLinetypeTableRecord
  2
PHANTOM
 70
     0
  3
Phantom
 72
    65
 73
     6
 40
13.0
 49
10.0
 74
     0
 49
-1.0
 74
     0
 49
0.0
 74
     0
 49
-1.0
 74
     0
 49
0.0
 74
     0
 49
-1.0
 74
     0
  0
LTYPE
  5
45
330
5
100
AcDbSymbolTableRecord
100
AcDbLinetypeTableRecord
  2
CENTER_DASH_DASH
 70
     0
  3
Center_Dash_Dash
 72
    65
 73
     6
 40
14.0
 49
9.0
 74
     0
 49
-1.0
 74
     0
 49
1.0
 74
     0
 49
-1.0
 74
     0
 49
1.0
 74
     0
 49
-1.0
 74
     0
  0
ENDTAB
  0
TABLE
  2
LAYER
  5
2
330
0
100
AcDbSymbolTable
 70
     3
  0
LAYER
  5
10
330
2
100
AcDbSymbolTableRecord
100
AcDbLayerTableRecord
  2
0
 70
     0
 62
     7
  6
Continuous
370
    -3
390
F
  0
LAYER
  5
46
330
2
100
AcDbSymbolTableRecord
100
AcDbLayerTableRecord
  2
1
 70
     0
 62
     7
  6
Continuous
370
    -3
390
F
  0
LAYER
  5
47
330
2
100
AcDbSymbolTableRecord
100
AcDbLayerTableRecord
  2
2
 70
     0
 62
     7
  6
Continuous
370
    -3
390
F
  0
ENDTAB
  0
TABLE
  2
STYLE
  5
3
330
0
100
AcDbSymbolTable
 70
     4
  0
STYLE
  5
11
330
3
100
AcDbSymbolTableRecord
100
AcDbTextStyleTableRecord
  2
Standard
 70
     0
 40
0.0
 41
1.0
 50
0.0
 71
     0
 42
0.2
  3
txt
  4

  0
STYLE
  5
5FC
330
3
100
AcDbSymbolTableRecord
100
AcDbTextStyleTableRecord
  2
CONVERTER_11
 70
     0
 40
0.0
 41
0.95
 50
0.0
 71
     0
 42
0.2
  3
simplex.shx
  4

  0
STYLE
  5
602
330
3
100
AcDbSymbolTableRecord
100
AcDbTextStyleTableRecord
  2
CONVERTER_12
 70
     0
 40
0.0
 41
1.2
 50
0.0
 71
     0
 42
0.2
  3
ARIAL.TTF
  4

  0
STYLE
  5
614
330
3
100
AcDbSymbolTableRecord
100
AcDbTextStyleTableRecord
  2
CONVERTER_13
 70
     0
 40
0.0
 41
0.855
 50
0.0
 71
     0
 42
0.2
  3
simplex.shx
  4

  0
ENDTAB
  0
TABLE
  2
VIEW
  5
6
330
0
100
AcDbSymbolTable
 70
     0
  0
ENDTAB
  0
TABLE
  2
UCS
  5
7
330
0
100
AcDbSymbolTable
 70
     0
  0
ENDTAB
  0
TABLE
  2
APPID
  5
9
330
0
100
AcDbSymbolTable
 70
     1
  0
APPID
  5
12
330
9
100
AcDbSymbolTableRecord
100
AcDbRegAppTableRecord
  2
ACAD
 70
     0
  0
ENDTAB
  0
TABLE
  2
DIMSTYLE
  5
A
330
0
100
AcDbSymbolTable
 70
     4
100
AcDbDimStyleTable
  0
DIMSTYLE
105
27
330
A
100
AcDbSymbolTableRecord
100
AcDbDimStyleTableRecord
  2
Standard
 70
     0
178
     0
340
11
  0
DIMSTYLE
105
627
102
{ACAD_REACTORS
330
628
102
}
330
A
100
AcDbSymbolTableRecord
100
AcDbDimStyleTableRecord
  2
ME10_DIM_10
 70
     0
 41
3.0
 42
0.5
 44
1.0
 73
     0
 74
     0
 77
     1
 78
     8
140
3.0
147
2.0
172
     1
173
     1
174
     1
175
     1
176
     2
177
     2
271
     2
178
     4
271
     2
340
5FC
  0
DIMSTYLE
105
632
102
{ACAD_REACTORS
330
633
102
}
330
A
100
AcDbSymbolTableRecord
100
AcDbDimStyleTableRecord
  2
ME10_DIM_11
 70
     0
 41
3.0
 42
0.5
 44
1.0
 73
     0
 74
     0
 77
     1
 78
     8
140
3.0
147
2.0
172
     1
173
     1
174
     1
175
     1
176
     2
177
     2
271
     2
178
     4
271
     2
340
5FC
  0
DIMSTYLE
105
63D
102
{ACAD_REACTORS
330
63E
102
}
330
A
100
AcDbSymbolTableRecord
100
AcDbDimStyleTableRecord
  2
ME10_DIM_12
 70
     0
 41
3.0
 42
0.5
 44
1.0
 73
     0
 74
     0
 77
     1
 78
     8
140
3.0
147
2.0
172
     1
173
     1
174
     1
175
     1
176
     2
177
     2
271
     2
178
     4
271
     2
340
5FC
  0
ENDTAB
  0
TABLE
  2
BLOCK_RECORD
  5
1
330
0
100
AcDbSymbolTable
 70
     4
  0
BLOCK_RECORD
  5
1F
330
1
100
AcDbSymbolTableRecord
100
AcDbBlockTableRecord
  2
*Model_Space
340
22
  0
BLOCK_RECORD
  5
1B
330
1
100
AcDbSymbolTableRecord
100
AcDbBlockTableRecord
  2
*Paper_Space
340
1E
  0
BLOCK_RECORD
  5
23
330
1
100
AcDbSymbolTableRecord
100
AcDbBlockTableRecord
  2
*Paper_Space0
340
26
  0
BLOCK_RECORD
  5
61E
330
1
100
AcDbSymbolTableRecord
100
AcDbBlockTableRecord
  2
*D1
340
0
  0
BLOCK_RECORD
  5
629
330
1
100
AcDbSymbolTableRecord
100
AcDbBlockTableRecord
  2
*D2
340
0
  0
BLOCK_RECORD
  5
634
330
1
100
AcDbSymbolTableRecord
100
AcDbBlockTableRecord
  2
*D3
340
0
  0
ENDTAB
  0
ENDSEC
  0
SECTION
  2
BLOCKS
  0
BLOCK
  5
20
330
1F
100
AcDbEntity
  8
0
100
AcDbBlockBegin
  2
*Model_Space
 70
     0
 10
0.0
 20
0.0
 30
0.0
  3
*Model_Space
  1

  0
ENDBLK
  5
21
330
1F
100
AcDbEntity
  8
0
100
AcDbBlockEnd
  0
BLOCK
  5
1C
330
1B
100
AcDbEntity
 67
     1
  8
0
100
AcDbBlockBegin
  2
*Paper_Space
 70
     0
 10
0.0
 20
0.0
 30
0.0
  3
*Paper_Space
  1

  0
ENDBLK
  5
1D
330
1B
100
AcDbEntity
 67
     1
  8
0
100
AcDbBlockEnd
  0
BLOCK
  5
24
330
23
100
AcDbEntity
  8
0
100
AcDbBlockBegin
  2
*Paper_Space0
 70
     0
 10
0.0
 20
0.0
 30
0.0
  3
*Paper_Space0
  1

  0
ENDBLK
  5
25
330
23
100
AcDbEntity
  8
0
100
AcDbBlockEnd
  0
BLOCK
  5
625
330
61E
100
AcDbEntity
  8
0
100
AcDbBlockBegin
  2
*D1
 70
     1
 10
0.0
 20
0.0
 30
0.0
  3
*D1
  1

  0
LINE
  5
61F
330
61E
100
AcDbEntity
  8
1
  6
Continuous
 62
     2
100
AcDbLine
 10
-29.4848678726677
 20
188.1411685035745
 30
0.0
 11
-29.4848678726677
 21
152.6411685035739
 31
0.0
  0
LINE
  5
620
330
61E
100
AcDbEntity
  8
1
  6
Continuous
 62
     2
100
AcDbLine
 10
-41.59999999999994
 20
152.6411685035739
 30
0.0
 11
-28.4848678726677
 21
152.6411685035739
 31
0.0
  0
LINE
  5
621
330
61E
100
AcDbEntity
  8
1
  6
Continuous
 62
     2
100
AcDbLine
 10
-45.89999999999949
 20
188.1411685035745
 30
0.0
 11
-28.4848678726677
 21
188.1411685035745
 31
0.0
  0
SOLID
  5
622
330
61E
100
AcDbEntity
  8
1
 62
     2
100
AcDbTrace
 10
-29.08991037990551
 20
185.1411685035745
 30
0.0
 11
-29.87982536542989
 21
185.1411685035745
 31
0.0
 12
-29.4848678726677
 22
188.1411685035745
 32
0.0
 13
-29.4848678726677
 23
188.1411685035745
 33
0.0
  0
SOLID
  5
623
330
61E
100
AcDbEntity
  8
1
 62
     2
100
AcDbTrace
 10
-29.87982536542989
 20
155.6411685035739
 30
0.0
 11
-29.08991037990551
 21
155.6411685035739
 31
0.0
 12
-29.4848678726677
 22
152.6411685035739
 32
0.0
 13
-29.4848678726677
 23
152.6411685035739
 33
0.0
  0
MTEXT
  5
624
330
61E
100
AcDbEntity
  8
1
 62
     4
100
AcDbMText
 10
-31.7848678726677
 20
166.2661685035742
 30
0.0
 40
3.0
 41
0.0
 71
     7
 72
     1
  1
35,5
  7
CONVERTER_11
 11
0.0
 21
1.0
 31
0.0
 73
     1
 44
0.60024009603842
  0
ENDBLK
  5
626
330
61E
100
AcDbEntity
  8
0
100
AcDbBlockEnd
  0
BLOCK
  5
630
330
629
100
AcDbEntity
  8
0
100
AcDbBlockBegin
  2
*D2
 70
     1
 10
0.0
 20
0.0
 30
0.0
  3
*D2
  1

  0
LINE
  5
62A
330
629
100
AcDbEntity
  8
1
  6
Continuous
 62
     2
100
AcDbLine
 10
-74.09999999999982
 20
128.893710486078
 30
0.0
 11
-44.09999999999981
 21
128.893710486078
 31
0.0
  0
LINE
  5
62B
330
629
100
AcDbEntity
  8
1
  6
Continuous
 62
     2
100
AcDbLine
 10
-44.09999999999981
 20
152.1411685035739
 30
0.0
 11
-44.09999999999981
 21
127.893710486078
 31
0.0
  0
LINE
  5
62C
330
629
100
AcDbEntity
  8
1
  6
Continuous
 62
     2
100
AcDbLine
 10
-74.09999999999982
 20
152.1411685035735
 30
0.0
 11
-74.09999999999982
 21
127.893710486078
 31
0.0
  0
SOLID
  5
62D
330
629
100
AcDbEntity
  8
1
 62
     2
100
AcDbTrace
 10
-71.09999999999982
 20
129.2886679788402
 30
0.0
 11
-71.09999999999982
 21
128.4987529933158
 31
0.0
 12
-74.09999999999982
 22
128.893710486078
 32
0.0
 13
-74.09999999999982
 23
128.893710486078
 33
0.0
  0
SOLID
  5
62E
330
629
100
AcDbEntity
  8
1
 62
     2
100
AcDbTrace
 10
-47.09999999999981
 20
128.4987529933158
 30
0.0
 11
-47.09999999999981
 21
129.2886679788402
 31
0.0
 12
-44.09999999999981
 22
128.893710486078
 32
0.0
 13
-44.09999999999981
 23
128.893710486078
 33
0.0
  0
MTEXT
  5
62F
330
629
100
AcDbEntity
  8
1
 62
     4
100
AcDbMText
 10
-61.34999999999982
 20
130.893710486078
 30
0.0
 40
3.0
 41
0.0
 71
     7
 72
     1
  1
30
  7
CONVERTER_11
 11
0.9999999999970619
 21
2.424068405545306E-6
 31
0.0
 73
     1
 44
0.60024009603842
  0
ENDBLK
  5
631
330
629
100
AcDbEntity
  8
0
100
AcDbBlockEnd
  0
BLOCK
  5
63B
330
634
100
AcDbEntity
  8
0
100
AcDbBlockBegin
  2
*D3
 70
     1
 10
0.0
 20
0.0
 30
0.0
  3
*D3
  1

  0
LINE
  5
635
330
634
100
AcDbEntity
  8
1
  6
Continuous
 62
     2
100
AcDbLine
 10
-147.1000000000001
 20
128.743710486078
 30
0.0
 11
-103.0000000000001
 21
128.743710486078
 31
0.0
  0
LINE
  5
636
330
634
100
AcDbEntity
  8
1
  6
Continuous
 62
     2
100
AcDbLine
 10
-103.0000000000001
 20
152.1411685035733
 30
0.0
 11
-103.0000000000001
 21
127.743710486078
 31
0.0
  0
LINE
  5
637
330
634
100
AcDbEntity
  8
1
  6
Continuous
 62
     2
100
AcDbLine
 10
-147.1000000000001
 20
152.1411685035735
 30
0.0
 11
-147.1000000000001
 21
127.743710486078
 31
0.0
  0
SOLID
  5
638
330
634
100
AcDbEntity
  8
1
 62
     2
100
AcDbTrace
 10
-144.1000000000001
 20
129.1386679788402
 30
0.0
 11
-144.1000000000001
 21
128.3487529933158
 31
0.0
 12
-147.1000000000001
 22
128.743710486078
 32
0.0
 13
-147.1000000000001
 23
128.743710486078
 33
0.0
  0
SOLID
  5
639
330
634
100
AcDbEntity
  8
1
 62
     2
100
AcDbTrace
 10
-106.0000000000001
 20
128.3487529933158
 30
0.0
 11
-106.0000000000001
 21
129.1386679788402
 31
0.0
 12
-103.0000000000001
 22
128.743710486078
 32
0.0
 13
-103.0000000000001
 23
128.743710486078
 33
0.0
  0
MTEXT
  5
63A
330
634
100
AcDbEntity
  8
1
 62
     4
100
AcDbMText
 10
-128.7250000000001
 20
131.043710486078
 30
0.0
 40
3.0
 41
0.0
 71
     7
 72
     1
  1
44,1
  7
CONVERTER_11
 11
0.9999999999970619
 21
2.424068405545306E-6
 31
0.0
 73
     1
 44
0.60024009603842
  0
ENDBLK
  5
63C
330
634
100
AcDbEntity
  8
0
100
AcDbBlockEnd
  0
ENDSEC
  0
SECTION
  2
ENTITIES
  0
LINE
  5
48
330
1F
100
AcDbEntity
  8
1
  6
Continuous
 62
     7
100
AcDbLine
 10
-163.9999999999999
 20
35.0
 30
0.0
 11
-163.9999999999999
 21
40.0
 31
0.0
  0
LINE
  5
49
330
1F
100
AcDbEntity
  8
1
  6
Continuous
 62
     7
100
AcDbLine
 10
-182.0
 20
35.0
 30
0.0
 11
-182.0
 21
40.0
 31
0.0
  0
LINE
  5
4A
330
1F
100
AcDbEntity
  8
1
  6
Continuous
 62
     7
100
AcDbLine
 10
-189.0
 20
40.0
 30
0.0
 11
-5.0
 21
40.0
 31
0.0
  0
LINE
  5
4B
330
1F
100
AcDbEntity
  8
1
  6
Continuous
 62
     7
100
AcDbLine
 10
-163.9999999999999
 20
30.0
 30
0.0
 11
-163.9999999999999
 21
35.0
 31
0.0
  0
LINE
  5
4C
330
1F
100
AcDbEntity
  8
1
  6
Continuous
 62
     7
100
AcDbLine
 10
-182.0
 20
30.0
 30
0.0
 11
-182.0
 21
35.0
 31
0.0
  0
LINE
  5
4D
330
1F
100
AcDbEntity
  8
1
  6
Continuous
 62
     7
100
AcDbLine
 10
-189.0
 20
35.0
 30
0.0
 11
-5.0
 21
35.0
 31
0.0
  0
LINE
  5
4E
330
1F
100
AcDbEntity
  8
1
  6
Continuous
 62
     7
100
AcDbLine
 10
-163.9999999999999
 20
25.0
 30
0.0
 11
-163.9999999999999
 21
30.0
 31
0.0
  0
LINE
  5
4F
330
1F
100
AcDbEntity
  8
1
  6
Continuous
 62
     7
100
AcDbLine
 10
-182.0
 20
25.0
 30
0.0
 11
-182.0
 21
30.0
 31
0.0
  0
LINE
  5
50
330
1F
100
AcDbEntity
  8
1
  6
Continuous
 62
     7
100
AcDbLine
 10
-189.0
 20
30.0
 30
0.0
 11
-5.0
 21
30.0
 31
0.0
  0
LINE
  5
51
330
1F
100
AcDbEntity
  8
1
  6
Continuous
 62
     7
100
AcDbLine
 10
-163.9999999999999
 20
20.0
 30
0.0
 11
-163.9999999999999
 21
25.0
 31
0.0
  0
LINE
  5
52
330
1F
100
AcDbEntity
  8
1
  6
Continuous
 62
     7
100
AcDbLine
 10
-182.0
 20
20.0
 30
0.0
 11
-182.0
 21
25.0
 31
0.0
  0
LINE
  5
53
330
1F
100
AcDbEntity
  8
1
  6
Continuous
 62
     7
100
AcDbLine
 10
-189.0
 20
25.0
 30
0.0
 11
-5.0
 21
25.0
 31
0.0
  0
LINE
  5
54
330
1F
100
AcDbEntity
  8
1
  6
Continuous
 62
     7
100
AcDbLine
 10
-189.0
 20
40.0
 30
0.0
 11
-189.0
 21
5.0
 31
0.0
  0
LINE
  5
55
330
1F
100
AcDbEntity
  8
1
  6
Continuous
 62
     7
100
AcDbLine
 10
-189.0
 20
292.0000000000001
 30
0.0
 11
-189.0
 21
5.0
 31
0.0
  0
LINE
  5
56
330
1F
100
AcDbEntity
  8
1
  6
Continuous
 62
     7
100
AcDbLine
 10
-5.0
 20
292.0000000000001
 30
0.0
 11
-189.0
 21
292.0000000000001
 31
0.0
  0
LINE
  5
57
330
1F
100
AcDbEntity
  8
1
  6
Continuous
 62
     7
100
AcDbLine
 10
-5.0
 20
4.99999999999989
 30
0.0
 11
-5.0
 21
292.0000000000001
 31
0.0
  0
LINE
  5
58
330
1F
100
AcDbEntity
  8
1
  6
Continuous
 62
     7
100
AcDbLine
 10
0.0
 20
297.0000000000001
 30
0.0
 11
-210.0000000000001
 21
297.0000000000001
 31
0.0
  0
LINE
  5
59
330
1F
100
AcDbEntity
  8
1
  6
Continuous
 62
     7
100
AcDbLine
 10
-210.0000000000001
 20
297.0000000000001
 30
0.0
 11
-210.0000000000001
 21
0.0
 31
0.0
  0
LINE
  5
5A
330
1F
100
AcDbEntity
  8
1
  6
Continuous
 62
     7
100
AcDbLine
 10
-210.0000000000001
 20
0.0
 30
0.0
 11
0.0
 21
0.0
 31
0.0
  0
LINE
  5
5B
330
1F
100
AcDbEntity
  8
1
  6
Continuous
 62
     7
100
AcDbLine
 10
0.0
 20
0.0
 30
0.0
 11
0.0
 21
297.0000000000001
 31
0.0
  0
LINE
  5
5C
330
1F
100
AcDbEntity
  8
1
  6
Continuous
 62
     7
100
AcDbLine
 10
-210.0000000000001
 20
148.4999999999998
 30
0.0
 11
-195.0000000000001
 21
148.4999999999998
 31
0.0
  0
LINE
  5
5D
330
1F
100
AcDbEntity
  8
1
  6
Continuous
 62
     7
100
AcDbLine
 10
-189.0
 20
12.5
 30
0.0
 11
-159.0
 21
12.5
 31
0.0
  0
LINE
  5
5E
330
1F
100
AcDbEntity
  8
1
  6
Continuous
 62
     7
100
AcDbLine
 10
-159.0
 20
20.0
 30
0.0
 11
-159.0
 21
5.0
 31
0.0
  0
LINE
  5
5F
330
1F
100
AcDbEntity
  8
1
  6
Continuous
 62
     7
100
AcDbLine
 10
-189.0
 20
20.0
 30
0.0
 11
-5.0
 21
20.0
 31
0.0
  0
LINE
  5
60
330
1F
100
AcDbEntity
  8
1
  6
Continuous
 62
     7
100
AcDbLine
 10
-31.6473986225146
 20
20.0
 30
0.0
 11
-31.6473986225146
 21
5.0
 31
0.0
  0
LINE
  5
61
102
{ACAD_REACTORS
330
640
102
}
330
1F
100
AcDbEntity
  8
1
  6
Continuous
 62
     7
100
AcDbLine
 10
-17.32369931125732
 20
12.5
 30
0.0
 11
-17.32369931125732
 21
14.23205080756884
 31
0.0
  0
LINE
  5
62
102
{ACAD_REACTORS
330
640
102
}
330
1F
100
AcDbEntity
  8
1
  6
Continuous
 62
     7
100
AcDbLine
 10
-17.32369931125732
 20
14.23205080756884
 30
0.0
 11
-18.1793617439599
 21
12.75
 31
0.0
  0
LINE
  5
63
102
{ACAD_REACTORS
330
640
102
}
330
1F
100
AcDbEntity
  8
1
  6
Continuous
 62
     7
100
AcDbLine
 10
-18.46803687855481
 20
12.75
 30
0.0
 11
-19.32369931125732
 21
14.23205080756884
 31
0.0
  0
LINE
  5
64
102
{ACAD_REACTORS
330
640
102
}
330
1F
100
AcDbEntity
  8
1
  6
Continuous
 62
     7
100
AcDbLine
 10
-19.32369931125732
 20
14.23205080756884
 30
0.0
 11
-19.32369931125732
 21
12.5
 31
0.0
  0
LINE
  5
65
330
1F
100
AcDbEntity
  8
1
  6
Continuous
 62
     7
100
AcDbLine
 10
-26.74013458639891
 20
12.64436426434133
 30
0.0
 11
-18.32369931125732
 21
17.5
 31
0.0
  0
LINE
  5
66
330
1F
100
AcDbEntity
  8
1
  6
Continuous
 62
     7
100
AcDbLine
 10
-18.32369931125732
 20
17.5
 30
0.0
 11
-9.90726403611581
 21
12.64436426434133
 31
0.0
  0
LINE
  5
67
330
1F
100
AcDbEntity
  8
1
  6
Continuous
 62
     7
100
AcDbLine
 10
-9.90726403611581
 20
12.35563573565855
 30
0.0
 11
-18.32369931125732
 21
7.5
 31
0.0
  0
LINE
  5
68
330
1F
100
AcDbEntity
  8
1
  6
Continuous
 62
     7
100
AcDbLine
 10
-18.32369931125732
 20
7.5
 30
0.0
 11
-26.74013458639891
 21
12.35563573565855
 31
0.0
  0
LINE
  5
69
102
{ACAD_REACTORS
330
640
102
}
330
1F
100
AcDbEntity
  8
1
  6
Continuous
 62
     7
100
AcDbLine
 10
-19.990365977924
 20
12.5
 30
0.0
 11
-19.990365977924
 21
15.73121731203457
 31
0.0
  0
LINE
  5
6A
102
{ACAD_REACTORS
330
640
102
}
330
1F
100
AcDbEntity
  8
1
  6
Continuous
 62
     7
100
AcDbLine
 10
-19.49593229430062
 20
15.86370041827229
 30
0.0
 11
-18.32369931125732
 21
13.83333333333326
 31
0.0
  0
LINE
  5
6B
102
{ACAD_REACTORS
330
640
102
}
330
1F
100
AcDbEntity
  8
1
  6
Continuous
 62
     7
100
AcDbLine
 10
-19.990365977924
 20
12.5
 30
0.0
 11
-19.990365977924
 21
10.84758507263291
 31
0.0
  0
LINE
  5
6C
102
{ACAD_REACTORS
330
640
102
}
330
1F
100
AcDbEntity
  8
1
  6
Continuous
 62
     7
100
AcDbLine
 10
-19.32369931125732
 20
10.84758507263291
 30
0.0
 11
-19.32369931125732
 21
12.5
 31
0.0
  0
LINE
  5
6D
102
{ACAD_REACTORS
330
640
102
}
330
1F
100
AcDbEntity
  8
1
  6
Continuous
 62
     7
100
AcDbLine
 10
-17.32369931125732
 20
12.5
 30
0.0
 11
-17.32369931125732
 21
9.3082690706018
 31
0.0
  0
LINE
  5
6E
102
{ACAD_REACTORS
330
640
102
}
330
1F
100
AcDbEntity
  8
1
  6
Continuous
 62
     7
100
AcDbLine
 10
-16.65703264459071
 20
9.3082690706018
 30
0.0
 11
-16.65703264459071
 21
15.73121731203457
 31
0.0
  0
LINE
  5
6F
102
{ACAD_REACTORS
330
640
102
}
330
1F
100
AcDbEntity
  8
1
  6
Continuous
 62
     7
100
AcDbLine
 10
-17.15146632821401
 20
15.86370041827229
 30
0.0
 11
-18.32369931125732
 21
13.83333333333326
 31
0.0
  0
LINE
  5
70
102
{ACAD_REACTORS
330
641
102
}
330
1F
100
AcDbEntity
  8
1
  6
Continuous
 62
     7
100
AcDbLine
 10
-21.32369931125732
 20
10.27002114803258
 30
0.0
 11
-21.32369931125732
 21
14.92250016016737
 31
0.0
  0
LINE
  5
71
102
{ACAD_REACTORS
330
641
102
}
330
1F
100
AcDbEntity
  8
1
  6
Continuous
 62
     7
100
AcDbLine
 10
-20.65703264459071
 20
14.92250016016737
 30
0.0
 11
-20.65703264459071
 21
10.2700211480327
 31
0.0
  0
LINE
  5
72
102
{ACAD_REACTORS
330
641
102
}
330
1F
100
AcDbEntity
  8
1
  6
Continuous
 62
     7
100
AcDbLine
 10
-20.65703264459071
 20
10.2700211480327
 30
0.0
 11
-18.49045849342741
 21
9.0200745223616
 31
0.0
  0
LINE
  5
73
102
{ACAD_REACTORS
330
641
102
}
330
1F
100
AcDbEntity
  8
1
  6
Continuous
 62
     7
100
AcDbLine
 10
-18.8236067957539
 20
8.44261746499581
 30
0.0
 11
-20.99018094691701
 21
9.69256409066691
 31
0.0
  0
LINE
  5
74
102
{ACAD_REACTORS
330
63F
102
}
330
1F
100
AcDbEntity
  8
1
  6
Continuous
 62
     7
100
AcDbLine
 10
-21.990365977924
 20
14.15326939093666
 30
0.0
 11
-21.990365977924
 21
11.0392519172633
 31
0.0
  0
LINE
  5
75
102
{ACAD_REACTORS
330
63F
102
}
330
1F
100
AcDbEntity
  8
1
  6
Continuous
 62
     7
100
AcDbLine
 10
-21.990365977924
 20
11.0392519172633
 30
0.0
 11
-21.990365977924
 21
10.84673060906323
 31
0.0
  0
LINE
  5
76
102
{ACAD_REACTORS
330
63F
102
}
330
1F
100
AcDbEntity
  8
1
  6
Continuous
 62
     7
100
AcDbLine
 10
-22.65703264459071
 20
10.84673060906323
 30
0.0
 11
-22.65703264459071
 21
14.15326939093666
 31
0.0
  0
LINE
  5
77
102
{ACAD_REACTORS
330
642
102
}
330
1F
100
AcDbEntity
  8
1
  6
Continuous
 62
     7
100
AcDbLine
 10
-15.49045849342741
 20
15.21122868885027
 30
0.0
 11
-14.15712516009421
 21
14.44199791961944
 31
0.0
  0
LINE
  5
78
102
{ACAD_REACTORS
330
642
102
}
330
1F
100
AcDbEntity
  8
1
  6
Continuous
 62
     7
100
AcDbLine
 10
-14.4902734624205
 20
13.86454086225376
 30
0.0
 11
-15.32369931125732
 21
14.34536346735195
 31
0.0
  0
LINE
  5
79
102
{ACAD_REACTORS
330
642
102
}
330
1F
100
AcDbEntity
  8
1
  6
Continuous
 62
     7
100
AcDbLine
 10
-15.32369931125732
 20
14.34536346735195
 30
0.0
 11
-15.32369931125732
 21
12.83333333333326
 31
0.0
  0
LINE
  5
7A
102
{ACAD_REACTORS
330
642
102
}
330
1F
100
AcDbEntity
  8
1
  6
Continuous
 62
     7
100
AcDbLine
 10
-15.32369931125732
 20
12.83333333333326
 30
0.0
 11
-14.32369931125732
 21
12.83333333333326
 31
0.0
  0
LINE
  5
7B
102
{ACAD_REACTORS
330
642
102
}
330
1F
100
AcDbEntity
  8
1
  6
Continuous
 62
     7
100
AcDbLine
 10
-14.32369931125732
 20
12.16666666666663
 30
0.0
 11
-15.32369931125732
 21
12.16666666666663
 31
0.0
  0
LINE
  5
7C
102
{ACAD_REACTORS
330
642
102
}
330
1F
100
AcDbEntity
  8
1
  6
Continuous
 62
     7
100
AcDbLine
 10
-15.32369931125732
 20
12.16666666666663
 30
0.0
 11
-15.32369931125732
 21
10.65463653264794
 31
0.0
  0
LINE
  5
7D
102
{ACAD_REACTORS
330
642
102
}
330
1F
100
AcDbEntity
  8
1
  6
Continuous
 62
     7
100
AcDbLine
 10
-15.32369931125732
 20
10.65463653264794
 30
0.0
 11
-14.4902734624205
 21
11.13545913774624
 31
0.0
  0
LINE
  5
7E
102
{ACAD_REACTORS
330
642
102
}
330
1F
100
AcDbEntity
  8
1
  6
Continuous
 62
     7
100
AcDbLine
 10
-14.15712516009421
 20
10.55800208038033
 30
0.0
 11
-15.49045849342741
 21
9.78877131114973
 31
0.0
  0
LINE
  5
7F
102
{ACAD_REACTORS
330
642
102
}
330
1F
100
AcDbEntity
  8
1
  6
Continuous
 62
     7
100
AcDbLine
 10
-15.99036597792392
 20
10.07749983983263
 30
0.0
 11
-15.99036597792392
 21
14.92250016016737
 31
0.0
  0
LINE
  5
80
330
1F
100
AcDbEntity
  8
1
  6
Continuous
 62
     7
100
AcDbLine
 10
-49.0
 20
20.0
 30
0.0
 11
-49.0
 21
5.0
 31
0.0
  0
LINE
  5
81
330
1F
100
AcDbEntity
  8
1
  6
Continuous
 62
     7
100
AcDbLine
 10
-189.0
 20
20.0
 30
0.0
 11
-189.0
 21
5.0
 31
0.0
  0
LINE
  5
82
330
1F
100
AcDbEntity
  8
1
  6
Continuous
 62
     7
100
AcDbLine
 10
-189.0
 20
5.0
 30
0.0
 11
-5.0
 21
4.99999999999989
 31
0.0
  0
LINE
  5
83
102
{ACAD_REACTORS
330
643
102
}
330
1F
100
AcDbEntity
  8
1
  6
Continuous
 62
     2
100
AcDbLine
 10
-139.7500000000002
 20
211.5105516132646
 30
0.0
 11
-140.5000000000002
 21
213.5105516132646
 31
0.0
  0
LINE
  5
84
102
{ACAD_REACTORS
330
643
102
}
330
1F
100
AcDbEntity
  8
1
  6
Continuous
 62
     2
100
AcDbLine
 10
-139.0000000000002
 20
213.5105516132646
 30
0.0
 11
-139.7500000000002
 21
211.5105516132646
 31
0.0
  0
LINE
  5
85
102
{ACAD_REACTORS
330
643
102
}
330
1F
100
AcDbEntity
  8
1
  6
Continuous
 62
     2
100
AcDbLine
 10
-140.5000000000002
 20
213.5105516132646
 30
0.0
 11
-139.0000000000002
 21
213.5105516132646
 31
0.0
  0
LINE
  5
86
102
{ACAD_REACTORS
330
644
102
}
330
1F
100
AcDbEntity
  8
1
  6
Continuous
 62
     2
100
AcDbLine
 10
-125.8000000000001
 20
213.5105516132646
 30
0.0
 11
-124.3000000000001
 21
213.5105516132646
 31
0.0
  0
LINE
  5
87
102
{ACAD_REACTORS
330
644
102
}
330
1F
100
AcDbEntity
  8
1
  6
Continuous
 62
     2
100
AcDbLine
 10
-124.3000000000001
 20
213.5105516132646
 30
0.0
 11
-125.0500000000002
 21
211.5105516132646
 31
0.0
  0
LINE
  5
88
102
{ACAD_REACTORS
330
644
102
}
330
1F
100
AcDbEntity
  8
1
  6
Continuous
 62
     2
100
AcDbLine
 10
-125.0500000000002
 20
211.5105516132646
 30
0.0
 11
-125.8000000000001
 21
213.5105516132646
 31
0.0
  0
LINE
  5
89
102
{ACAD_REACTORS
330
645
102
}
330
1F
100
AcDbEntity
  8
1
  6
Continuous
 62
     2
100
AcDbLine
 10
-110.35
 20
211.5105516132646
 30
0.0
 11
-111.1
 21
213.5105516132646
 31
0.0
  0
LINE
  5
8A
102
{ACAD_REACTORS
330
645
102
}
330
1F
100
AcDbEntity
  8
1
  6
Continuous
 62
     2
100
AcDbLine
 10
-109.6
 20
213.5105516132646
 30
0.0
 11
-110.35
 21
211.5105516132646
 31
0.0
  0
LINE
  5
8B
102
{ACAD_REACTORS
330
645
102
}
330
1F
100
AcDbEntity
  8
1
  6
Continuous
 62
     2
100
AcDbLine
 10
-111.1
 20
213.5105516132646
 30
0.0
 11
-109.6
 21
213.5105516132646
 31
0.0
  0
LINE
  5
8C
330
1F
100
AcDbEntity
  8
1
  6
Continuous
 62
     7
100
AcDbLine
 10
0.0
 20
297.0000000000001
 30
0.0
 11
0.0
 21
0.0
 31
0.0
  0
LINE
  5
8D
330
1F
100
AcDbEntity
  8
2
  6
DASHED
 62
     4
100
AcDbLine
 10
-111.8250000000002
 20
93.90935674649492
 30
0.0
 11
-111.8250000000002
 21
94.90935674649492
 31
0.0
  0
LINE
  5
8E
330
1F
100
AcDbEntity
  8
2
  6
DASHED
 62
     4
100
AcDbLine
 10
-112.1750000000002
 20
93.90683674649497
 30
0.0
 11
-112.1750000000002
 21
94.90935674649492
 31
0.0
  0
LINE
  5
8F
330
1F
100
AcDbEntity
  8
2
  6
DASHED
 62
     4
100
AcDbLine
 10
-110.8050000000002
 20
93.90935674649492
 30
0.0
 11
-110.8050000000002
 21
94.90935674649492
 31
0.0
  0
LINE
  5
90
330
1F
100
AcDbEntity
  8
2
  6
DASHED
 62
     4
100
AcDbLine
 10
-111.1550000000002
 20
93.90683674649497
 30
0.0
 11
-111.1550000000002
 21
94.90935674649492
 31
0.0
  0
LINE
  5
91
330
1F
100
AcDbEntity
  8
2
  6
DASHED
 62
     4
100
AcDbLine
 10
-117.2750000000002
 20
93.90935674649492
 30
0.0
 11
-117.2750000000002
 21
94.90935674649492
 31
0.0
  0
LINE
  5
92
330
1F
100
AcDbEntity
  8
2
  6
DASHED
 62
     4
100
AcDbLine
 10
-116.9250000000002
 20
93.90683674649497
 30
0.0
 11
-116.9250000000002
 21
94.90935674649492
 31
0.0
  0
LINE
  5
93
330
1F
100
AcDbEntity
  8
2
  6
DASHED
 62
     4
100
AcDbLine
 10
-118.2950000000002
 20
93.90935674649492
 30
0.0
 11
-118.2950000000002
 21
94.90935674649492
 31
0.0
  0
LINE
  5
94
330
1F
100
AcDbEntity
  8
2
  6
DASHED
 62
     4
100
AcDbLine
 10
-117.9450000000002
 20
93.90683674649497
 30
0.0
 11
-117.9450000000002
 21
94.90935674649492
 31
0.0
  0
LINE
  5
95
330
1F
100
AcDbEntity
  8
2
  6
DASHED
 62
     4
100
AcDbLine
 10
-113.8650000000002
 20
93.90935674649492
 30
0.0
 11
-113.8650000000002
 21
94.90935674649492
 31
0.0
  0
LINE
  5
96
330
1F
100
AcDbEntity
  8
2
  6
DASHED
 62
     4
100
AcDbLine
 10
-114.2150000000002
 20
93.90683674649497
 30
0.0
 11
-114.2150000000002
 21
94.90935674649492
 31
0.0
  0
LINE
  5
97
330
1F
100
AcDbEntity
  8
2
  6
DASHED
 62
     4
100
AcDbLine
 10
-112.8450000000002
 20
93.90935674649492
 30
0.0
 11
-112.8450000000002
 21
94.90935674649492
 31
0.0
  0
LINE
  5
98
330
1F
100
AcDbEntity
  8
2
  6
DASHED
 62
     4
100
AcDbLine
 10
-113.1950000000002
 20
93.90683674649497
 30
0.0
 11
-113.1950000000002
 21
94.90935674649492
 31
0.0
  0
LINE
  5
99
330
1F
100
AcDbEntity
  8
2
  6
DASHED
 62
     4
100
AcDbLine
 10
-115.2350000000002
 20
93.90683674649497
 30
0.0
 11
-115.2350000000002
 21
94.90935674649492
 31
0.0
  0
LINE
  5
9A
330
1F
100
AcDbEntity
  8
2
  6
DASHED
 62
     4
100
AcDbLine
 10
-114.8850000000002
 20
93.90935674649492
 30
0.0
 11
-114.8850000000002
 21
94.90935674649492
 31
0.0
  0
LINE
  5
9B
330
1F
100
AcDbEntity
  8
2
  6
DASHED
 62
     4
100
AcDbLine
 10
-116.2550000000002
 20
93.90683674649497
 30
0.0
 11
-116.2550000000002
 21
94.90935674649492
 31
0.0
  0
LINE
  5
9C
330
1F
100
AcDbEntity
  8
2
  6
DASHED
 62
     4
100
AcDbLine
 10
-115.9050000000002
 20
93.90935674649492
 30
0.0
 11
-115.9050000000002
 21
94.90935674649492
 31
0.0
  0
LINE
  5
9D
330
1F
100
AcDbEntity
  8
2
  6
DASHED
 62
     4
100
AcDbLine
 10
-112.1750000000002
 20
94.26462674649494
 30
0.0
 11
-111.8250000000002
 21
94.26462674649494
 31
0.0
  0
LINE
  5
9E
330
1F
100
AcDbEntity
  8
2
  6
DASHED
 62
     4
100
AcDbLine
 10
-111.1550000000003
 20
94.26462674649494
 30
0.0
 11
-110.8050000000002
 21
94.26462674649494
 31
0.0
  0
LINE
  5
9F
330
1F
100
AcDbEntity
  8
2
  6
DASHED
 62
     4
100
AcDbLine
 10
-112.1750000000002
 20
93.90935674649492
 30
0.0
 11
-111.8250000000002
 21
93.90935674649492
 31
0.0
  0
LINE
  5
A0
330
1F
100
AcDbEntity
  8
2
  6
DASHED
 62
     4
100
AcDbLine
 10
-111.1550000000002
 20
93.90935674649492
 30
0.0
 11
-110.8050000000002
 21
93.90935674649492
 31
0.0
  0
LINE
  5
A1
330
1F
100
AcDbEntity
  8
2
  6
DASHED
 62
     4
100
AcDbLine
 10
-116.9250000000002
 20
94.26462674649494
 30
0.0
 11
-117.2750000000002
 21
94.26462674649494
 31
0.0
  0
LINE
  5
A2
330
1F
100
AcDbEntity
  8
2
  6
DASHED
 62
     4
100
AcDbLine
 10
-117.9450000000002
 20
94.26462674649494
 30
0.0
 11
-118.2950000000002
 21
94.26462674649494
 31
0.0
  0
LINE
  5
A3
330
1F
100
AcDbEntity
  8
2
  6
DASHED
 62
     4
100
AcDbLine
 10
-117.2750000000002
 20
93.90935674649492
 30
0.0
 11
-116.9250000000002
 21
93.90935674649492
 31
0.0
  0
LINE
  5
A4
330
1F
100
AcDbEntity
  8
2
  6
DASHED
 62
     4
100
AcDbLine
 10
-118.2950000000002
 20
93.90935674649492
 30
0.0
 11
-117.9450000000002
 21
93.90935674649492
 31
0.0
  0
LINE
  5
A5
330
1F
100
AcDbEntity
  8
2
  6
DASHED
 62
     4
100
AcDbLine
 10
-113.1950000000002
 20
93.90935674649492
 30
0.0
 11
-112.8450000000002
 21
93.90935674649492
 31
0.0
  0
LINE
  5
A6
330
1F
100
AcDbEntity
  8
2
  6
DASHED
 62
     4
100
AcDbLine
 10
-113.1950000000002
 20
94.26462674649494
 30
0.0
 11
-112.8450000000002
 21
94.26462674649494
 31
0.0
  0
LINE
  5
A7
330
1F
100
AcDbEntity
  8
2
  6
DASHED
 62
     4
100
AcDbLine
 10
-114.2150000000002
 20
93.90935674649492
 30
0.0
 11
-113.8650000000002
 21
93.90935674649492
 31
0.0
  0
LINE
  5
A8
330
1F
100
AcDbEntity
  8
2
  6
DASHED
 62
     4
100
AcDbLine
 10
-114.2150000000002
 20
94.26462674649494
 30
0.0
 11
-113.8650000000002
 21
94.26462674649494
 31
0.0
  0
LINE
  5
A9
330
1F
100
AcDbEntity
  8
2
  6
DASHED
 62
     4
100
AcDbLine
 10
-115.2350000000002
 20
93.90935674649492
 30
0.0
 11
-114.8850000000002
 21
93.90935674649492
 31
0.0
  0
LINE
  5
AA
330
1F
100
AcDbEntity
  8
2
  6
DASHED
 62
     4
100
AcDbLine
 10
-115.2350000000002
 20
94.26462674649494
 30
0.0
 11
-114.8850000000002
 21
94.26462674649494
 31
0.0
  0
LINE
  5
AB
330
1F
100
AcDbEntity
  8
2
  6
DASHED
 62
     4
100
AcDbLine
 10
-116.2550000000002
 20
93.90935674649492
 30
0.0
 11
-115.9050000000002
 21
93.90935674649492
 31
0.0
  0
LINE
  5
AC
330
1F
100
AcDbEntity
  8
2
  6
DASHED
 62
     4
100
AcDbLine
 10
-116.2550000000002
 20
94.26462674649494
 30
0.0
 11
-115.9050000000002
 21
94.26462674649494
 31
0.0
  0
LINE
  5
AD
330
1F
100
AcDbEntity
  8
2
  6
DASHED
 62
     4
100
AcDbLine
 10
-109.8000000000002
 20
88.65408674649493
 30
0.0
 11
-110.1500000000002
 21
88.65408674649493
 31
0.0
  0
LINE
  5
AE
330
1F
100
AcDbEntity
  8
2
  6
DASHED
 62
     4
100
AcDbLine
 10
-110.1500000000002
 20
88.00935674649494
 30
0.0
 11
-110.1500000000002
 21
89.01187674649495
 31
0.0
  0
LINE
  5
AF
330
1F
100
AcDbEntity
  8
2
  6
DASHED
 62
     4
100
AcDbLine
 10
-109.8000000000002
 20
88.00935674649494
 30
0.0
 11
-109.8000000000002
 21
89.00935674649494
 31
0.0
  0
LINE
  5
B0
330
1F
100
AcDbEntity
  8
1
  6
DASHED
 62
     7
100
AcDbLine
 10
-111.4000000000001
 20
88.00935674649489
 30
0.0
 11
-111.4000000000002
 21
89.01187674649495
 31
0.0
  0
LINE
  5
B1
330
1F
100
AcDbEntity
  8
1
  6
DASHED
 62
     7
100
AcDbLine
 10
-111.4000000000002
 20
89.01187674649495
 30
0.0
 11
-108.5500000000002
 21
89.01187674649495
 31
0.0
  0
LINE
  5
B2
330
1F
100
AcDbEntity
  8
2
  6
DASHED
 62
     4
100
AcDbLine
 10
-118.9500000000002
 20
89.01187674649495
 30
0.0
 11
-118.9500000000002
 21
88.00935674649494
 31
0.0
  0
LINE
  5
B3
330
1F
100
AcDbEntity
  8
2
  6
DASHED
 62
     4
100
AcDbLine
 10
-119.3000000000002
 20
89.00935674649494
 30
0.0
 11
-119.3000000000002
 21
88.00935674649494
 31
0.0
  0
LINE
  5
B4
330
1F
100
AcDbEntity
  8
2
  6
DASHED
 62
     4
100
AcDbLine
 10
-118.9500000000002
 20
88.65408674649493
 30
0.0
 11
-119.3000000000002
 21
88.65408674649493
 31
0.0
  0
LINE
  5
B5
330
1F
100
AcDbEntity
  8
1
  6
DASHED
 62
     7
100
AcDbLine
 10
-120.5500000000002
 20
89.01187674649495
 30
0.0
 11
-117.7000000000002
 21
89.01187674649495
 31
0.0
  0
LINE
  5
B6
330
1F
100
AcDbEntity
  8
1
  6
DASHED
 62
     7
100
AcDbLine
 10
-117.7000000000002
 20
89.01187674649495
 30
0.0
 11
-117.7000000000001
 21
88.00935674649489
 31
0.0
  0
LINE
  5
B7
330
1F
100
AcDbEntity
  8
2
  6
DASHED
 62
     4
100
AcDbLine
 10
-137.2550000000001
 20
230.815821613264
 30
0.0
 11
-136.9050000000001
 21
230.815821613264
 31
0.0
  0
LINE
  5
B8
330
1F
100
AcDbEntity
  8
2
  6
DASHED
 62
     4
100
AcDbLine
 10
-137.2550000000001
 20
230.460551613264
 30
0.0
 11
-136.9050000000001
 21
230.460551613264
 31
0.0
  0
LINE
  5
B9
330
1F
100
AcDbEntity
  8
2
  6
DASHED
 62
     4
100
AcDbLine
 10
-136.2350000000001
 20
230.815821613264
 30
0.0
 11
-135.8850000000001
 21
230.815821613264
 31
0.0
  0
LINE
  5
BA
330
1F
100
AcDbEntity
  8
2
  6
DASHED
 62
     4
100
AcDbLine
 10
-136.2350000000001
 20
230.460551613264
 30
0.0
 11
-135.8850000000001
 21
230.460551613264
 31
0.0
  0
LINE
  5
BB
330
1F
100
AcDbEntity
  8
2
  6
DASHED
 62
     4
100
AcDbLine
 10
-135.2150000000001
 20
230.815821613264
 30
0.0
 11
-134.8650000000001
 21
230.815821613264
 31
0.0
  0
LINE
  5
BC
330
1F
100
AcDbEntity
  8
2
  6
DASHED
 62
     4
100
AcDbLine
 10
-135.2150000000001
 20
230.460551613264
 30
0.0
 11
-134.8650000000001
 21
230.460551613264
 31
0.0
  0
LINE
  5
BD
330
1F
100
AcDbEntity
  8
2
  6
DASHED
 62
     4
100
AcDbLine
 10
-134.1950000000001
 20
230.815821613264
 30
0.0
 11
-133.8450000000001
 21
230.815821613264
 31
0.0
  0
LINE
  5
BE
330
1F
100
AcDbEntity
  8
2
  6
DASHED
 62
     4
100
AcDbLine
 10
-134.1950000000001
 20
230.460551613264
 30
0.0
 11
-133.8450000000001
 21
230.460551613264
 31
0.0
  0
LINE
  5
BF
330
1F
100
AcDbEntity
  8
2
  6
DASHED
 62
     4
100
AcDbLine
 10
-139.2950000000001
 20
230.460551613264
 30
0.0
 11
-138.9450000000001
 21
230.460551613264
 31
0.0
  0
LINE
  5
C0
330
1F
100
AcDbEntity
  8
2
  6
DASHED
 62
     4
100
AcDbLine
 10
-138.2750000000001
 20
230.460551613264
 30
0.0
 11
-137.9250000000001
 21
230.460551613264
 31
0.0
  0
LINE
  5
C1
330
1F
100
AcDbEntity
  8
2
  6
DASHED
 62
     4
100
AcDbLine
 10
-138.9450000000001
 20
230.815821613264
 30
0.0
 11
-139.2950000000001
 21
230.815821613264
 31
0.0
  0
LINE
  5
C2
330
1F
100
AcDbEntity
  8
2
  6
DASHED
 62
     4
100
AcDbLine
 10
-137.9250000000001
 20
230.815821613264
 30
0.0
 11
-138.2750000000001
 21
230.815821613264
 31
0.0
  0
LINE
  5
C3
330
1F
100
AcDbEntity
  8
2
  6
DASHED
 62
     4
100
AcDbLine
 10
-132.1550000000001
 20
230.460551613264
 30
0.0
 11
-131.8050000000001
 21
230.460551613264
 31
0.0
  0
LINE
  5
C4
330
1F
100
AcDbEntity
  8
2
  6
DASHED
 62
     4
100
AcDbLine
 10
-133.1750000000001
 20
230.460551613264
 30
0.0
 11
-132.8250000000001
 21
230.460551613264
 31
0.0
  0
LINE
  5
C5
330
1F
100
AcDbEntity
  8
2
  6
DASHED
 62
     4
100
AcDbLine
 10
-132.1550000000001
 20
230.815821613264
 30
0.0
 11
-131.8050000000001
 21
230.815821613264
 31
0.0
  0
LINE
  5
C6
330
1F
100
AcDbEntity
  8
2
  6
DASHED
 62
     4
100
AcDbLine
 10
-133.1750000000001
 20
230.815821613264
 30
0.0
 11
-132.8250000000001
 21
230.815821613264
 31
0.0
  0
LINE
  5
C7
330
1F
100
AcDbEntity
  8
2
  6
DASHED
 62
     4
100
AcDbLine
 10
-136.9050000000001
 20
230.460551613264
 30
0.0
 11
-136.9050000000001
 21
231.460551613264
 31
0.0
  0
LINE
  5
C8
330
1F
100
AcDbEntity
  8
2
  6
DASHED
 62
     4
100
AcDbLine
 10
-137.2550000000001
 20
230.4580316132641
 30
0.0
 11
-137.2550000000001
 21
231.460551613264
 31
0.0
  0
LINE
  5
C9
330
1F
100
AcDbEntity
  8
2
  6
DASHED
 62
     4
100
AcDbLine
 10
-135.8850000000001
 20
230.460551613264
 30
0.0
 11
-135.8850000000001
 21
231.460551613264
 31
0.0
  0
LINE
  5
CA
330
1F
100
AcDbEntity
  8
2
  6
DASHED
 62
     4
100
AcDbLine
 10
-136.2350000000001
 20
230.4580316132641
 30
0.0
 11
-136.2350000000001
 21
231.460551613264
 31
0.0
  0
LINE
  5
CB
330
1F
100
AcDbEntity
  8
2
  6
DASHED
 62
     4
100
AcDbLine
 10
-134.1950000000001
 20
230.4580316132641
 30
0.0
 11
-134.1950000000001
 21
231.460551613264
 31
0.0
  0
LINE
  5
CC
330
1F
100
AcDbEntity
  8
2
  6
DASHED
 62
     4
100
AcDbLine
 10
-133.8450000000001
 20
230.460551613264
 30
0.0
 11
-133.8450000000001
 21
231.460551613264
 31
0.0
  0
LINE
  5
CD
330
1F
100
AcDbEntity
  8
2
  6
DASHED
 62
     4
100
AcDbLine
 10
-135.2150000000001
 20
230.4580316132641
 30
0.0
 11
-135.2150000000001
 21
231.460551613264
 31
0.0
  0
LINE
  5
CE
330
1F
100
AcDbEntity
  8
2
  6
DASHED
 62
     4
100
AcDbLine
 10
-134.8650000000001
 20
230.460551613264
 30
0.0
 11
-134.8650000000001
 21
231.460551613264
 31
0.0
  0
LINE
  5
CF
330
1F
100
AcDbEntity
  8
2
  6
DASHED
 62
     4
100
AcDbLine
 10
-138.9450000000001
 20
230.4580316132641
 30
0.0
 11
-138.9450000000001
 21
231.460551613264
 31
0.0
  0
LINE
  5
D0
330
1F
100
AcDbEntity
  8
2
  6
DASHED
 62
     4
100
AcDbLine
 10
-139.2950000000001
 20
230.460551613264
 30
0.0
 11
-139.2950000000001
 21
231.460551613264
 31
0.0
  0
LINE
  5
D1
330
1F
100
AcDbEntity
  8
2
  6
DASHED
 62
     4
100
AcDbLine
 10
-137.9250000000001
 20
230.4580316132641
 30
0.0
 11
-137.9250000000001
 21
231.460551613264
 31
0.0
  0
LINE
  5
D2
330
1F
100
AcDbEntity
  8
2
  6
DASHED
 62
     4
100
AcDbLine
 10
-138.2750000000001
 20
230.460551613264
 30
0.0
 11
-138.2750000000001
 21
231.460551613264
 31
0.0
  0
LINE
  5
D3
330
1F
100
AcDbEntity
  8
2
  6
DASHED
 62
     4
100
AcDbLine
 10
-132.1550000000001
 20
230.4580316132641
 30
0.0
 11
-132.1550000000001
 21
231.460551613264
 31
0.0
  0
LINE
  5
D4
330
1F
100
AcDbEntity
  8
2
  6
DASHED
 62
     4
100
AcDbLine
 10
-131.8050000000001
 20
230.460551613264
 30
0.0
 11
-131.8050000000001
 21
231.460551613264
 31
0.0
  0
LINE
  5
D5
330
1F
100
AcDbEntity
  8
2
  6
DASHED
 62
     4
100
AcDbLine
 10
-133.1750000000001
 20
230.4580316132641
 30
0.0
 11
-133.1750000000001
 21
231.460551613264
 31
0.0
  0
LINE
  5
D6
330
1F
100
AcDbEntity
  8
2
  6
DASHED
 62
     4
100
AcDbLine
 10
-132.8250000000001
 20
230.460551613264
 30
0.0
 11
-132.8250000000001
 21
231.460551613264
 31
0.0
  0
LINE
  5
D7
330
1F
100
AcDbEntity
  8
2
  6
DASHED
 62
     4
100
AcDbLine
 10
-130.8000000000001
 20
224.560551613264
 30
0.0
 11
-130.8000000000001
 21
225.560551613264
 31
0.0
  0
LINE
  5
D8
330
1F
100
AcDbEntity
  8
2
  6
DASHED
 62
     4
100
AcDbLine
 10
-131.1500000000001
 20
224.560551613264
 30
0.0
 11
-131.1500000000001
 21
225.563071613264
 31
0.0
  0
LINE
  5
D9
330
1F
100
AcDbEntity
  8
2
  6
DASHED
 62
     4
100
AcDbLine
 10
-130.8000000000001
 20
225.205281613264
 30
0.0
 11
-131.1500000000001
 21
225.205281613264
 31
0.0
  0
LINE
  5
DA
330
1F
100
AcDbEntity
  8
2
  6
DASHED
 62
     4
100
AcDbLine
 10
-139.9500000000001
 20
225.205281613264
 30
0.0
 11
-140.3000000000001
 21
225.205281613264
 31
0.0
  0
LINE
  5
DB
330
1F
100
AcDbEntity
  8
2
  6
DASHED
 62
     4
100
AcDbLine
 10
-140.3000000000001
 20
225.560551613264
 30
0.0
 11
-140.3000000000001
 21
224.560551613264
 31
0.0
  0
LINE
  5
DC
330
1F
100
AcDbEntity
  8
2
  6
DASHED
 62
     4
100
AcDbLine
 10
-139.9500000000001
 20
225.563071613264
 30
0.0
 11
-139.9500000000001
 21
224.560551613264
 31
0.0
  0
LINE
  5
DD
330
1F
100
AcDbEntity
  8
1
  6
DASHED
 62
     7
100
AcDbLine
 10
-141.5500000000001
 20
225.563071613264
 30
0.0
 11
-138.7000000000001
 21
225.563071613264
 31
0.0
  0
LINE
  5
DE
330
1F
100
AcDbEntity
  8
1
  6
DASHED
 62
     7
100
AcDbLine
 10
-132.4000000000001
 20
225.563071613264
 30
0.0
 11
-129.5500000000001
 21
225.563071613264
 31
0.0
  0
LINE
  5
DF
330
1F
100
AcDbEntity
  8
1
  6
DASHED
 62
     7
100
AcDbLine
 10
-132.4000000000001
 20
224.560551613264
 30
0.0
 11
-132.4000000000001
 21
225.563071613264
 31
0.0
  0
LINE
  5
E0
330
1F
100
AcDbEntity
  8
1
  6
DASHED
 62
     7
100
AcDbLine
 10
-138.7000000000001
 20
225.563071613264
 30
0.0
 11
-138.7000000000001
 21
224.560551613264
 31
0.0
  0
LINE
  5
E1
330
1F
100
AcDbEntity
  8
1
  6
DASHED
 62
     7
100
AcDbLine
 10
-132.4000000000001
 20
93.90683674649495
 30
0.0
 11
-132.4000000000001
 21
94.90935674649498
 31
0.0
  0
LINE
  5
E2
330
1F
100
AcDbEntity
  8
1
  6
DASHED
 62
     7
100
AcDbLine
 10
-129.5500000000001
 20
93.90683674649495
 30
0.0
 11
-132.4000000000001
 21
93.90683674649495
 31
0.0
  0
LINE
  5
E3
330
1F
100
AcDbEntity
  8
2
  6
DASHED
 62
     4
100
AcDbLine
 10
-131.1500000000001
 20
94.26462674649495
 30
0.0
 11
-130.8000000000001
 21
94.26462674649495
 31
0.0
  0
LINE
  5
E4
330
1F
100
AcDbEntity
  8
2
  6
DASHED
 62
     4
100
AcDbLine
 10
-130.8000000000001
 20
93.90935674649495
 30
0.0
 11
-130.8000000000001
 21
94.90935674649494
 31
0.0
  0
LINE
  5
E5
330
1F
100
AcDbEntity
  8
2
  6
DASHED
 62
     4
100
AcDbLine
 10
-131.1500000000001
 20
93.90683674649495
 30
0.0
 11
-131.1500000000001
 21
94.90935674649494
 31
0.0
  0
LINE
  5
E6
330
1F
100
AcDbEntity
  8
1
  6
DASHED
 62
     7
100
AcDbLine
 10
-138.7000000000001
 20
93.90683674649495
 30
0.0
 11
-141.5500000000001
 21
93.90683674649495
 31
0.0
  0
LINE
  5
E7
330
1F
100
AcDbEntity
  8
1
  6
DASHED
 62
     7
100
AcDbLine
 10
-138.7000000000001
 20
94.90935674649498
 30
0.0
 11
-138.7000000000001
 21
93.90683674649495
 31
0.0
  0
LINE
  5
E8
330
1F
100
AcDbEntity
  8
2
  6
DASHED
 62
     4
100
AcDbLine
 10
-140.3000000000001
 20
94.90935674649494
 30
0.0
 11
-140.3000000000001
 21
93.90935674649495
 31
0.0
  0
LINE
  5
E9
330
1F
100
AcDbEntity
  8
2
  6
DASHED
 62
     4
100
AcDbLine
 10
-139.9500000000001
 20
94.90935674649494
 30
0.0
 11
-139.9500000000001
 21
93.90683674649495
 31
0.0
  0
LINE
  5
EA
330
1F
100
AcDbEntity
  8
2
  6
DASHED
 62
     4
100
AcDbLine
 10
-140.3000000000001
 20
94.26462674649495
 30
0.0
 11
-139.9500000000001
 21
94.26462674649495
 31
0.0
  0
LINE
  5
EB
330
1F
100
AcDbEntity
  8
2
  6
DASHED
 62
     4
100
AcDbLine
 10
-133.8450000000001
 20
88.65408674649495
 30
0.0
 11
-134.1950000000001
 21
88.65408674649495
 31
0.0
  0
LINE
  5
EC
330
1F
100
AcDbEntity
  8
2
  6
DASHED
 62
     4
100
AcDbLine
 10
-133.8450000000001
 20
89.00935674649497
 30
0.0
 11
-134.1950000000001
 21
89.00935674649497
 31
0.0
  0
LINE
  5
ED
330
1F
100
AcDbEntity
  8
2
  6
DASHED
 62
     4
100
AcDbLine
 10
-134.8650000000001
 20
88.65408674649495
 30
0.0
 11
-135.2150000000001
 21
88.65408674649495
 31
0.0
  0
LINE
  5
EE
330
1F
100
AcDbEntity
  8
2
  6
DASHED
 62
     4
100
AcDbLine
 10
-134.8650000000001
 20
89.00935674649497
 30
0.0
 11
-135.2150000000001
 21
89.00935674649497
 31
0.0
  0
LINE
  5
EF
330
1F
100
AcDbEntity
  8
2
  6
DASHED
 62
     4
100
AcDbLine
 10
-135.8850000000001
 20
88.65408674649495
 30
0.0
 11
-136.2350000000001
 21
88.65408674649495
 31
0.0
  0
LINE
  5
F0
330
1F
100
AcDbEntity
  8
2
  6
DASHED
 62
     4
100
AcDbLine
 10
-135.8850000000001
 20
89.00935674649497
 30
0.0
 11
-136.2350000000001
 21
89.00935674649497
 31
0.0
  0
LINE
  5
F1
330
1F
100
AcDbEntity
  8
2
  6
DASHED
 62
     4
100
AcDbLine
 10
-136.9050000000001
 20
88.65408674649495
 30
0.0
 11
-137.2550000000001
 21
88.65408674649495
 31
0.0
  0
LINE
  5
F2
330
1F
100
AcDbEntity
  8
2
  6
DASHED
 62
     4
100
AcDbLine
 10
-136.9050000000001
 20
89.00935674649497
 30
0.0
 11
-137.2550000000001
 21
89.00935674649497
 31
0.0
  0
LINE
  5
F3
330
1F
100
AcDbEntity
  8
2
  6
DASHED
 62
     4
100
AcDbLine
 10
-131.8050000000001
 20
89.00935674649497
 30
0.0
 11
-132.1550000000001
 21
89.00935674649497
 31
0.0
  0
LINE
  5
F4
330
1F
100
AcDbEntity
  8
2
  6
DASHED
 62
     4
100
AcDbLine
 10
-132.8250000000001
 20
89.00935674649497
 30
0.0
 11
-133.1750000000001
 21
89.00935674649497
 31
0.0
  0
LINE
  5
F5
330
1F
100
AcDbEntity
  8
2
  6
DASHED
 62
     4
100
AcDbLine
 10
-132.1550000000001
 20
88.65408674649495
 30
0.0
 11
-131.8050000000001
 21
88.65408674649495
 31
0.0
  0
LINE
  5
F6
330
1F
100
AcDbEntity
  8
2
  6
DASHED
 62
     4
100
AcDbLine
 10
-133.1750000000001
 20
88.65408674649495
 30
0.0
 11
-132.8250000000001
 21
88.65408674649495
 31
0.0
  0
LINE
  5
F7
330
1F
100
AcDbEntity
  8
2
  6
DASHED
 62
     4
100
AcDbLine
 10
-138.9450000000001
 20
89.00935674649497
 30
0.0
 11
-139.2950000000001
 21
89.00935674649497
 31
0.0
  0
LINE
  5
F8
330
1F
100
AcDbEntity
  8
2
  6
DASHED
 62
     4
100
AcDbLine
 10
-137.9250000000001
 20
89.00935674649497
 30
0.0
 11
-138.2750000000001
 21
89.00935674649497
 31
0.0
  0
LINE
  5
F9
330
1F
100
AcDbEntity
  8
2
  6
DASHED
 62
     4
100
AcDbLine
 10
-138.9450000000001
 20
88.65408674649495
 30
0.0
 11
-139.2950000000001
 21
88.65408674649495
 31
0.0
  0
LINE
  5
FA
330
1F
100
AcDbEntity
  8
2
  6
DASHED
 62
     4
100
AcDbLine
 10
-137.9250000000001
 20
88.65408674649495
 30
0.0
 11
-138.2750000000001
 21
88.65408674649495
 31
0.0
  0
LINE
  5
FB
330
1F
100
AcDbEntity
  8
2
  6
DASHED
 62
     4
100
AcDbLine
 10
-134.1950000000001
 20
89.00935674649497
 30
0.0
 11
-134.1950000000001
 21
88.00935674649497
 31
0.0
  0
LINE
  5
FC
330
1F
100
AcDbEntity
  8
2
  6
DASHED
 62
     4
100
AcDbLine
 10
-133.8450000000001
 20
89.01187674649492
 30
0.0
 11
-133.8450000000001
 21
88.00935674649497
 31
0.0
  0
LINE
  5
FD
330
1F
100
AcDbEntity
  8
2
  6
DASHED
 62
     4
100
AcDbLine
 10
-135.2150000000001
 20
89.00935674649497
 30
0.0
 11
-135.2150000000001
 21
88.00935674649497
 31
0.0
  0
LINE
  5
FE
330
1F
100
AcDbEntity
  8
2
  6
DASHED
 62
     4
100
AcDbLine
 10
-134.8650000000001
 20
89.01187674649492
 30
0.0
 11
-134.8650000000001
 21
88.00935674649497
 31
0.0
  0
LINE
  5
FF
330
1F
100
AcDbEntity
  8
2
  6
DASHED
 62
     4
100
AcDbLine
 10
-136.9050000000001
 20
89.01187674649492
 30
0.0
 11
-136.9050000000001
 21
88.00935674649497
 31
0.0
  0
LINE
  5
100
330
1F
100
AcDbEntity
  8
2
  6
DASHED
 62
     4
100
AcDbLine
 10
-137.2550000000001
 20
89.00935674649497
 30
0.0
 11
-137.2550000000001
 21
88.00935674649497
 31
0.0
  0
LINE
  5
101
330
1F
100
AcDbEntity
  8
2
  6
DASHED
 62
     4
100
AcDbLine
 10
-135.8850000000001
 20
89.01187674649492
 30
0.0
 11
-135.8850000000001
 21
88.00935674649497
 31
0.0
  0
LINE
  5
102
330
1F
100
AcDbEntity
  8
2
  6
DASHED
 62
     4
100
AcDbLine
 10
-136.2350000000001
 20
89.00935674649497
 30
0.0
 11
-136.2350000000001
 21
88.00935674649497
 31
0.0
  0
LINE
  5
103
330
1F
100
AcDbEntity
  8
2
  6
DASHED
 62
     4
100
AcDbLine
 10
-132.1550000000001
 20
89.01187674649492
 30
0.0
 11
-132.1550000000001
 21
88.00935674649497
 31
0.0
  0
LINE
  5
104
330
1F
100
AcDbEntity
  8
2
  6
DASHED
 62
     4
100
AcDbLine
 10
-131.8050000000001
 20
89.00935674649497
 30
0.0
 11
-131.8050000000001
 21
88.00935674649497
 31
0.0
  0
LINE
  5
105
330
1F
100
AcDbEntity
  8
2
  6
DASHED
 62
     4
100
AcDbLine
 10
-133.1750000000001
 20
89.01187674649492
 30
0.0
 11
-133.1750000000001
 21
88.00935674649497
 31
0.0
  0
LINE
  5
106
330
1F
100
AcDbEntity
  8
2
  6
DASHED
 62
     4
100
AcDbLine
 10
-132.8250000000001
 20
89.00935674649497
 30
0.0
 11
-132.8250000000001
 21
88.00935674649497
 31
0.0
  0
LINE
  5
107
330
1F
100
AcDbEntity
  8
2
  6
DASHED
 62
     4
100
AcDbLine
 10
-138.9450000000001
 20
89.01187674649492
 30
0.0
 11
-138.9450000000001
 21
88.00935674649497
 31
0.0
  0
LINE
  5
108
330
1F
100
AcDbEntity
  8
2
  6
DASHED
 62
     4
100
AcDbLine
 10
-139.2950000000001
 20
89.00935674649497
 30
0.0
 11
-139.2950000000001
 21
88.00935674649497
 31
0.0
  0
LINE
  5
109
330
1F
100
AcDbEntity
  8
2
  6
DASHED
 62
     4
100
AcDbLine
 10
-137.9250000000001
 20
89.01187674649492
 30
0.0
 11
-137.9250000000001
 21
88.00935674649497
 31
0.0
  0
LINE
  5
10A
330
1F
100
AcDbEntity
  8
2
  6
DASHED
 62
     4
100
AcDbLine
 10
-138.2750000000001
 20
89.00935674649497
 30
0.0
 11
-138.2750000000001
 21
88.00935674649497
 31
0.0
  0
LINE
  5
10B
330
1F
100
AcDbEntity
  8
2
  6
DASHED
 62
     4
100
AcDbLine
 10
-117.2750000000001
 20
225.560551613264
 30
0.0
 11
-117.2750000000001
 21
224.560551613264
 31
0.0
  0
LINE
  5
10C
330
1F
100
AcDbEntity
  8
2
  6
DASHED
 62
     4
100
AcDbLine
 10
-116.9250000000001
 20
225.563071613264
 30
0.0
 11
-116.9250000000001
 21
224.560551613264
 31
0.0
  0
LINE
  5
10D
330
1F
100
AcDbEntity
  8
2
  6
DASHED
 62
     4
100
AcDbLine
 10
-118.2950000000001
 20
225.560551613264
 30
0.0
 11
-118.2950000000001
 21
224.560551613264
 31
0.0
  0
LINE
  5
10E
330
1F
100
AcDbEntity
  8
2
  6
DASHED
 62
     4
100
AcDbLine
 10
-117.9450000000001
 20
225.563071613264
 30
0.0
 11
-117.9450000000001
 21
224.560551613264
 31
0.0
  0
LINE
  5
10F
330
1F
100
AcDbEntity
  8
2
  6
DASHED
 62
     4
100
AcDbLine
 10
-111.8250000000001
 20
225.560551613264
 30
0.0
 11
-111.8250000000001
 21
224.560551613264
 31
0.0
  0
LINE
  5
110
330
1F
100
AcDbEntity
  8
2
  6
DASHED
 62
     4
100
AcDbLine
 10
-112.1750000000001
 20
225.563071613264
 30
0.0
 11
-112.1750000000001
 21
224.560551613264
 31
0.0
  0
LINE
  5
111
330
1F
100
AcDbEntity
  8
2
  6
DASHED
 62
     4
100
AcDbLine
 10
-110.8050000000001
 20
225.560551613264
 30
0.0
 11
-110.8050000000001
 21
224.560551613264
 31
0.0
  0
LINE
  5
112
330
1F
100
AcDbEntity
  8
2
  6
DASHED
 62
     4
100
AcDbLine
 10
-111.1550000000001
 20
225.563071613264
 30
0.0
 11
-111.1550000000001
 21
224.560551613264
 31
0.0
  0
LINE
  5
113
330
1F
100
AcDbEntity
  8
2
  6
DASHED
 62
     4
100
AcDbLine
 10
-115.2350000000001
 20
225.560551613264
 30
0.0
 11
-115.2350000000001
 21
224.560551613264
 31
0.0
  0
LINE
  5
114
330
1F
100
AcDbEntity
  8
2
  6
DASHED
 62
     4
100
AcDbLine
 10
-114.8850000000001
 20
225.563071613264
 30
0.0
 11
-114.8850000000001
 21
224.560551613264
 31
0.0
  0
LINE
  5
115
330
1F
100
AcDbEntity
  8
2
  6
DASHED
 62
     4
100
AcDbLine
 10
-116.2550000000001
 20
225.560551613264
 30
0.0
 11
-116.2550000000001
 21
224.560551613264
 31
0.0
  0
LINE
  5
116
330
1F
100
AcDbEntity
  8
2
  6
DASHED
 62
     4
100
AcDbLine
 10
-115.9050000000001
 20
225.563071613264
 30
0.0
 11
-115.9050000000001
 21
224.560551613264
 31
0.0
  0
LINE
  5
117
330
1F
100
AcDbEntity
  8
2
  6
DASHED
 62
     4
100
AcDbLine
 10
-113.8650000000001
 20
225.563071613264
 30
0.0
 11
-113.8650000000001
 21
224.560551613264
 31
0.0
  0
LINE
  5
118
330
1F
100
AcDbEntity
  8
2
  6
DASHED
 62
     4
100
AcDbLine
 10
-114.2150000000001
 20
225.560551613264
 30
0.0
 11
-114.2150000000001
 21
224.560551613264
 31
0.0
  0
LINE
  5
119
330
1F
100
AcDbEntity
  8
2
  6
DASHED
 62
     4
100
AcDbLine
 10
-112.8450000000001
 20
225.563071613264
 30
0.0
 11
-112.8450000000001
 21
224.560551613264
 31
0.0
  0
LINE
  5
11A
330
1F
100
AcDbEntity
  8
2
  6
DASHED
 62
     4
100
AcDbLine
 10
-113.1950000000001
 20
225.560551613264
 30
0.0
 11
-113.1950000000001
 21
224.560551613264
 31
0.0
  0
LINE
  5
11B
330
1F
100
AcDbEntity
  8
2
  6
DASHED
 62
     4
100
AcDbLine
 10
-116.9250000000001
 20
225.205281613264
 30
0.0
 11
-117.2750000000001
 21
225.205281613264
 31
0.0
  0
LINE
  5
11C
330
1F
100
AcDbEntity
  8
2
  6
DASHED
 62
     4
100
AcDbLine
 10
-117.9450000000001
 20
225.205281613264
 30
0.0
 11
-118.2950000000001
 21
225.205281613264
 31
0.0
  0
LINE
  5
11D
330
1F
100
AcDbEntity
  8
2
  6
DASHED
 62
     4
100
AcDbLine
 10
-116.9250000000001
 20
225.560551613264
 30
0.0
 11
-117.2750000000001
 21
225.560551613264
 31
0.0
  0
LINE
  5
11E
330
1F
100
AcDbEntity
  8
2
  6
DASHED
 62
     4
100
AcDbLine
 10
-117.9450000000001
 20
225.560551613264
 30
0.0
 11
-118.2950000000001
 21
225.560551613264
 31
0.0
  0
LINE
  5
11F
330
1F
100
AcDbEntity
  8
2
  6
DASHED
 62
     4
100
AcDbLine
 10
-112.1750000000001
 20
225.205281613264
 30
0.0
 11
-111.8250000000001
 21
225.205281613264
 31
0.0
  0
LINE
  5
120
330
1F
100
AcDbEntity
  8
2
  6
DASHED
 62
     4
100
AcDbLine
 10
-111.1550000000001
 20
225.205281613264
 30
0.0
 11
-110.8050000000001
 21
225.205281613264
 31
0.0
  0
LINE
  5
121
330
1F
100
AcDbEntity
  8
2
  6
DASHED
 62
     4
100
AcDbLine
 10
-111.8250000000001
 20
225.560551613264
 30
0.0
 11
-112.1750000000001
 21
225.560551613264
 31
0.0
  0
LINE
  5
122
330
1F
100
AcDbEntity
  8
2
  6
DASHED
 62
     4
100
AcDbLine
 10
-110.8050000000001
 20
225.560551613264
 30
0.0
 11
-111.1550000000002
 21
225.560551613264
 31
0.0
  0
LINE
  5
123
330
1F
100
AcDbEntity
  8
2
  6
DASHED
 62
     4
100
AcDbLine
 10
-115.9050000000001
 20
225.560551613264
 30
0.0
 11
-116.2550000000001
 21
225.560551613264
 31
0.0
  0
LINE
  5
124
330
1F
100
AcDbEntity
  8
2
  6
DASHED
 62
     4
100
AcDbLine
 10
-115.9050000000001
 20
225.205281613264
 30
0.0
 11
-116.2550000000001
 21
225.205281613264
 31
0.0
  0
LINE
  5
125
330
1F
100
AcDbEntity
  8
2
  6
DASHED
 62
     4
100
AcDbLine
 10
-114.8850000000001
 20
225.560551613264
 30
0.0
 11
-115.2350000000001
 21
225.560551613264
 31
0.0
  0
LINE
  5
126
330
1F
100
AcDbEntity
  8
2
  6
DASHED
 62
     4
100
AcDbLine
 10
-114.8850000000001
 20
225.205281613264
 30
0.0
 11
-115.2350000000001
 21
225.205281613264
 31
0.0
  0
LINE
  5
127
330
1F
100
AcDbEntity
  8
2
  6
DASHED
 62
     4
100
AcDbLine
 10
-113.8650000000001
 20
225.560551613264
 30
0.0
 11
-114.2150000000001
 21
225.560551613264
 31
0.0
  0
LINE
  5
128
330
1F
100
AcDbEntity
  8
2
  6
DASHED
 62
     4
100
AcDbLine
 10
-113.8650000000001
 20
225.205281613264
 30
0.0
 11
-114.2150000000001
 21
225.205281613264
 31
0.0
  0
LINE
  5
129
330
1F
100
AcDbEntity
  8
2
  6
DASHED
 62
     4
100
AcDbLine
 10
-112.8450000000001
 20
225.560551613264
 30
0.0
 11
-113.1950000000001
 21
225.560551613264
 31
0.0
  0
LINE
  5
12A
330
1F
100
AcDbEntity
  8
2
  6
DASHED
 62
     4
100
AcDbLine
 10
-112.8450000000001
 20
225.205281613264
 30
0.0
 11
-113.1950000000001
 21
225.205281613264
 31
0.0
  0
LINE
  5
12B
330
1F
100
AcDbEntity
  8
2
  6
DASHED
 62
     4
100
AcDbLine
 10
-110.1500000000001
 20
230.458031613264
 30
0.0
 11
-110.1500000000001
 21
231.460551613264
 31
0.0
  0
LINE
  5
12C
330
1F
100
AcDbEntity
  8
2
  6
DASHED
 62
     4
100
AcDbLine
 10
-109.8000000000001
 20
230.460551613264
 30
0.0
 11
-109.8000000000001
 21
231.460551613264
 31
0.0
  0
LINE
  5
12D
330
1F
100
AcDbEntity
  8
2
  6
DASHED
 62
     4
100
AcDbLine
 10
-110.1500000000001
 20
230.815821613264
 30
0.0
 11
-109.8000000000001
 21
230.815821613264
 31
0.0
  0
LINE
  5
12E
330
1F
100
AcDbEntity
  8
1
  6
DASHED
 62
     7
100
AcDbLine
 10
-108.5500000000001
 20
230.458031613264
 30
0.0
 11
-111.4000000000001
 21
230.458031613264
 31
0.0
  0
LINE
  5
12F
330
1F
100
AcDbEntity
  8
1
  6
DASHED
 62
     7
100
AcDbLine
 10
-111.4000000000001
 20
230.458031613264
 30
0.0
 11
-111.4
 21
231.460551613264
 31
0.0
  0
LINE
  5
130
330
1F
100
AcDbEntity
  8
2
  6
DASHED
 62
     4
100
AcDbLine
 10
-119.3000000000001
 20
230.815821613264
 30
0.0
 11
-118.9500000000001
 21
230.815821613264
 31
0.0
  0
LINE
  5
131
330
1F
100
AcDbEntity
  8
2
  6
DASHED
 62
     4
100
AcDbLine
 10
-118.9500000000001
 20
231.460551613264
 30
0.0
 11
-118.9500000000001
 21
230.458031613264
 31
0.0
  0
LINE
  5
132
330
1F
100
AcDbEntity
  8
2
  6
DASHED
 62
     4
100
AcDbLine
 10
-119.3000000000001
 20
231.460551613264
 30
0.0
 11
-119.3000000000001
 21
230.460551613264
 31
0.0
  0
LINE
  5
133
330
1F
100
AcDbEntity
  8
1
  6
DASHED
 62
     7
100
AcDbLine
 10
-117.7000000000001
 20
230.458031613264
 30
0.0
 11
-120.5500000000001
 21
230.458031613264
 31
0.0
  0
LINE
  5
134
330
1F
100
AcDbEntity
  8
1
  6
DASHED
 62
     7
100
AcDbLine
 10
-117.7000000000001
 20
231.460551613264
 30
0.0
 11
-117.7000000000001
 21
230.458031613264
 31
0.0
  0
LINE
  5
135
330
1F
100
AcDbEntity
  8
0
  6
Continuous
 62
     7
100
AcDbLine
 10
-42.09999999999994
 20
155.1411685035737
 30
0.0
 11
-42.09999999999994
 21
155.6411685035737
 31
0.0
  0
LINE
  5
136
330
1F
100
AcDbEntity
  8
0
  6
Continuous
 62
     7
100
AcDbLine
 10
-42.09999999999994
 20
155.6411685035737
 30
0.0
 11
-44.09999999999994
 21
155.6411685035737
 31
0.0
  0
LINE
  5
137
330
1F
100
AcDbEntity
  8
0
  6
Continuous
 62
     7
100
AcDbLine
 10
-42.09999999999994
 20
152.6411685035739
 30
0.0
 11
-44.09999999999982
 21
152.6411685035739
 31
0.0
  0
LINE
  5
138
330
1F
100
AcDbEntity
  8
0
  6
Continuous
 62
     7
100
AcDbLine
 10
-47.09999999999989
 20
152.6411685035739
 30
0.0
 11
-46.09999999999994
 21
152.6411685035739
 31
0.0
  0
LINE
  5
139
330
1F
100
AcDbEntity
  8
0
  6
Continuous
 62
     7
100
AcDbLine
 10
-47.47371726275699
 20
152.6411685035739
 30
0.0
 11
-47.62628273724292
 21
152.6411685035739
 31
0.0
  0
LINE
  5
13A
330
1F
100
AcDbEntity
  8
0
  6
Continuous
 62
     7
100
AcDbLine
 10
-50.57371726275702
 20
152.6411685035738
 30
0.0
 11
-50.34999999999994
 21
152.6411685035735
 31
0.0
  0
LINE
  5
13B
330
1F
100
AcDbEntity
  8
0
  6
Continuous
 62
     7
100
AcDbLine
 10
-50.34999999999994
 20
152.6411685035735
 30
0.0
 11
-47.84999999999989
 21
152.6411685035734
 31
0.0
  0
LINE
  5
13C
330
1F
100
AcDbEntity
  8
0
  6
Continuous
 62
     7
100
AcDbLine
 10
-67.09999999999994
 20
152.6411685035736
 30
0.0
 11
-51.09999999999989
 21
152.6411685035738
 31
0.0
  0
LINE
  5
13D
330
1F
100
AcDbEntity
  8
0
  6
Continuous
 62
     7
100
AcDbLine
 10
-50.57371726275702
 20
152.6411685035738
 30
0.0
 11
-50.72628273724295
 21
152.6411685035738
 31
0.0
  0
LINE
  5
13E
330
1F
100
AcDbEntity
  8
0
  6
Continuous
 62
     7
100
AcDbLine
 10
-50.90803963710803
 20
152.6411685035738
 30
0.0
 11
-50.92596274085165
 21
152.6411685035738
 31
0.0
  0
LINE
  5
13F
330
1F
100
AcDbEntity
  8
0
  6
Continuous
 62
     7
100
AcDbLine
 10
-51.09999999999989
 20
152.6411685035738
 30
0.0
 11
-50.92596274085165
 21
152.6411685035738
 31
0.0
  0
LINE
  5
140
330
1F
100
AcDbEntity
  8
0
  6
Continuous
 62
     7
100
AcDbLine
 10
-50.72628273724295
 20
152.6411685035738
 30
0.0
 11
-50.90803963710803
 21
152.6411685035738
 31
0.0
  0
LINE
  5
141
330
1F
100
AcDbEntity
  8
0
  6
Continuous
 62
     7
100
AcDbLine
 10
-67.84999999999994
 20
152.6411685035738
 30
0.0
 11
-67.62628273724292
 21
152.6411685035736
 31
0.0
  0
LINE
  5
142
330
1F
100
AcDbEntity
  8
0
  6
Continuous
 62
     7
100
AcDbLine
 10
-67.09999999999994
 20
152.6411685035736
 30
0.0
 11
-67.27403725914812
 21
152.6411685035736
 31
0.0
  0
LINE
  5
143
330
1F
100
AcDbEntity
  8
0
  6
Continuous
 62
     7
100
AcDbLine
 10
-67.62628273724292
 20
152.6411685035736
 30
0.0
 11
-67.47371726275699
 21
152.6411685035736
 31
0.0
  0
LINE
  5
144
330
1F
100
AcDbEntity
  8
0
  6
Continuous
 62
     7
100
AcDbLine
 10
-70.57371726275684
 20
152.6411685035735
 30
0.0
 11
-70.34999999999994
 21
152.6411685035738
 31
0.0
  0
LINE
  5
145
330
1F
100
AcDbEntity
  8
0
  6
Continuous
 62
     7
100
AcDbLine
 10
-70.34999999999994
 20
152.6411685035738
 30
0.0
 11
-69.89999999999989
 21
152.6411685035741
 31
0.0
  0
LINE
  5
146
330
1F
100
AcDbEntity
  8
0
  6
Continuous
 62
     7
100
AcDbLine
 10
-67.27403725914812
 20
152.6411685035736
 30
0.0
 11
-67.29196036289173
 21
152.6411685035736
 31
0.0
  0
LINE
  5
147
330
1F
100
AcDbEntity
  8
0
  6
Continuous
 62
     7
100
AcDbLine
 10
-67.47371726275699
 20
152.6411685035736
 30
0.0
 11
-67.29196036289173
 21
152.6411685035736
 31
0.0
  0
LINE
  5
148
330
1F
100
AcDbEntity
  8
0
  6
Continuous
 62
     7
100
AcDbLine
 10
-70.72628273724294
 20
152.6411685035735
 30
0.0
 11
-70.57371726275684
 21
152.6411685035735
 31
0.0
  0
LINE
  5
149
330
1F
100
AcDbEntity
  8
0
  6
Continuous
 62
     7
100
AcDbLine
 10
-70.90803963710803
 20
152.6411685035735
 30
0.0
 11
-70.92596274085165
 21
152.6411685035735
 31
0.0
  0
LINE
  5
14A
330
1F
100
AcDbEntity
  8
0
  6
Continuous
 62
     7
100
AcDbLine
 10
-71.09999999999994
 20
152.6411685035735
 30
0.0
 11
-70.92596274085165
 21
152.6411685035735
 31
0.0
  0
LINE
  5
14B
330
1F
100
AcDbEntity
  8
0
  6
Continuous
 62
     7
100
AcDbLine
 10
-71.09999999999994
 20
152.6411685035735
 30
0.0
 11
-72.09999999999994
 21
152.6411685035735
 31
0.0
  0
LINE
  5
14C
330
1F
100
AcDbEntity
  8
0
  6
Continuous
 62
     7
100
AcDbLine
 10
-72.09999999999994
 20
152.6411685035735
 30
0.0
 11
-74.09999999999982
 21
152.6411685035735
 31
0.0
  0
LINE
  5
14D
330
1F
100
AcDbEntity
  8
0
  6
Continuous
 62
     7
100
AcDbLine
 10
-74.09999999999982
 20
152.6411685035735
 30
0.0
 11
-76.09999999999982
 21
152.6411685035735
 31
0.0
  0
LINE
  5
14E
330
1F
100
AcDbEntity
  8
0
  6
Continuous
 62
     7
100
AcDbLine
 10
-44.09999999999982
 20
152.6411685035739
 30
0.0
 11
-46.09999999999994
 21
152.6411685035739
 31
0.0
  0
LINE
  5
14F
330
1F
100
AcDbEntity
  8
0
  6
Continuous
 62
     7
100
AcDbLine
 10
-42.09999999999994
 20
155.1411685035737
 30
0.0
 11
-42.09999999999994
 21
152.6411685035739
 31
0.0
  0
LINE
  5
150
330
1F
100
AcDbEntity
  8
0
  6
Continuous
 62
     7
100
AcDbLine
 10
-44.09999999999982
 20
152.6411685035739
 30
0.0
 11
-44.09999999999994
 21
155.6411685035737
 31
0.0
  0
LINE
  5
151
330
1F
100
AcDbEntity
  8
0
  6
Continuous
 62
     7
100
AcDbLine
 10
-66.39999999999944
 20
188.1411685035746
 30
0.0
 11
-51.44999999999945
 21
188.1411685035745
 31
0.0
  0
LINE
  5
152
330
1F
100
AcDbEntity
  8
0
  6
Continuous
 62
     7
100
AcDbLine
 10
-46.89999999999961
 20
172.1411685035743
 30
0.0
 11
-66.39999999999966
 21
172.1411685035743
 31
0.0
  0
LINE
  5
153
330
1F
100
AcDbEntity
  8
0
  6
Continuous
 62
     7
100
AcDbLine
 10
-49.09999999999943
 20
188.1411685035745
 30
0.0
 11
-51.44999999999945
 21
188.1411685035745
 31
0.0
  0
LINE
  5
154
330
1F
100
AcDbEntity
  8
0
  6
Continuous
 62
     7
100
AcDbLine
 10
-51.44999999999945
 20
187.6411685035745
 30
0.0
 11
-51.44999999999945
 21
186.6411685035745
 31
0.0
  0
LINE
  5
155
330
1F
100
AcDbEntity
  8
0
  6
Continuous
 62
     7
100
AcDbLine
 10
-51.44999999999945
 20
186.6411685035745
 30
0.0
 11
-49.09999999999943
 21
186.6411685035745
 31
0.0
  0
LINE
  5
156
330
1F
100
AcDbEntity
  8
0
  6
Continuous
 62
     7
100
AcDbLine
 10
-74.09999999999994
 20
169.6411685035743
 30
0.0
 11
-74.09999999999971
 21
172.1411685035737
 31
0.0
  0
LINE
  5
157
330
1F
100
AcDbEntity
  8
0
  6
Continuous
 62
     7
100
AcDbLine
 10
-71.29999999999987
 20
172.1411685035745
 30
0.0
 11
-72.29999999999993
 21
172.1411685035737
 31
0.0
  0
LINE
  5
158
330
1F
100
AcDbEntity
  8
0
  6
Continuous
 62
     7
100
AcDbLine
 10
-74.09999999999994
 20
155.6411685035737
 30
0.0
 11
-76.09999999999982
 21
155.6411685035737
 31
0.0
  0
LINE
  5
159
330
1F
100
AcDbEntity
  8
0
  6
Continuous
 62
     7
100
AcDbLine
 10
-76.09999999999982
 20
155.1411685035737
 30
0.0
 11
-76.09999999999982
 21
155.6411685035737
 31
0.0
  0
LINE
  5
15A
330
1F
100
AcDbEntity
  8
0
  6
Continuous
 62
     7
100
AcDbLine
 10
-74.09999999999982
 20
152.6411685035735
 30
0.0
 11
-74.09999999999994
 21
155.6411685035737
 31
0.0
  0
LINE
  5
15B
330
1F
100
AcDbEntity
  8
0
  6
Continuous
 62
     7
100
AcDbLine
 10
-76.09999999999982
 20
155.1411685035737
 30
0.0
 11
-76.09999999999982
 21
152.6411685035735
 31
0.0
  0
LINE
  5
15C
330
1F
100
AcDbEntity
  8
0
  6
Continuous
 62
     7
100
AcDbLine
 10
-74.09999999999994
 20
155.6411685035737
 30
0.0
 11
-74.09999999999994
 21
169.6411685035743
 31
0.0
  0
LINE
  5
15D
330
1F
100
AcDbEntity
  8
0
  6
Continuous
 62
     7
100
AcDbLine
 10
-72.09999999999971
 20
169.6411685035737
 30
0.0
 11
-74.09999999999994
 21
169.6411685035743
 31
0.0
  0
LINE
  5
15E
330
1F
100
AcDbEntity
  8
0
  6
Continuous
 62
     7
100
AcDbLine
 10
-72.29999999999993
 20
172.1411685035737
 30
0.0
 11
-74.09999999999971
 21
172.1411685035737
 31
0.0
  0
LINE
  5
15F
330
1F
100
AcDbEntity
  8
0
  6
Continuous
 62
     7
100
AcDbLine
 10
-72.09999999999994
 20
152.6411685035735
 30
0.0
 11
-72.09999999999971
 21
169.6411685035737
 31
0.0
  0
LINE
  5
160
330
1F
100
AcDbEntity
  8
0
  6
Continuous
 62
     7
100
AcDbLine
 10
-44.09999999999972
 20
172.1411685035739
 30
0.0
 11
-45.89999999999967
 21
172.1411685035739
 31
0.0
  0
LINE
  5
161
330
1F
100
AcDbEntity
  8
0
  6
Continuous
 62
     7
100
AcDbLine
 10
-45.89999999999967
 20
172.1411685035739
 30
0.0
 11
-46.89999999999961
 21
172.1411685035743
 31
0.0
  0
LINE
  5
162
330
1F
100
AcDbEntity
  8
0
  6
Continuous
 62
     7
100
AcDbLine
 10
-44.09999999999994
 20
169.6411685035743
 30
0.0
 11
-44.09999999999972
 21
172.1411685035739
 31
0.0
  0
LINE
  5
163
330
1F
100
AcDbEntity
  8
0
  6
Continuous
 62
     7
100
AcDbLine
 10
-44.09999999999994
 20
155.6411685035737
 30
0.0
 11
-44.09999999999994
 21
169.6411685035743
 31
0.0
  0
LINE
  5
164
330
1F
100
AcDbEntity
  8
0
  6
Continuous
 62
     7
100
AcDbLine
 10
-71.29999999999981
 20
188.1411685035746
 30
0.0
 11
-71.79999999999981
 21
188.1411685035746
 31
0.0
  0
LINE
  5
165
330
1F
100
AcDbEntity
  8
0
  6
Continuous
 62
     7
100
AcDbLine
 10
-71.29999999999981
 20
188.1411685035746
 30
0.0
 11
-71.29999999999981
 21
187.6411685035746
 31
0.0
  0
LINE
  5
166
330
1F
100
AcDbEntity
  8
0
  6
Continuous
 62
     7
100
AcDbLine
 10
-68.19999999999945
 20
188.1411685035746
 30
0.0
 11
-71.29999999999981
 21
188.1411685035746
 31
0.0
  0
LINE
  5
167
330
1F
100
AcDbEntity
  8
0
  6
Continuous
 62
     7
100
AcDbLine
 10
-72.29999999999993
 20
172.1411685035737
 30
0.0
 11
-72.29999999999981
 21
187.6411685035746
 31
0.0
  0
LINE
  5
168
330
1F
100
AcDbEntity
  8
0
  6
Continuous
 62
     7
100
AcDbLine
 10
-71.29999999999987
 20
172.1411685035745
 30
0.0
 11
-71.29999999999981
 21
187.6411685035746
 31
0.0
  0
LINE
  5
169
330
1F
100
AcDbEntity
  8
0
  6
Continuous
 62
     7
100
AcDbLine
 10
-68.04999999999964
 20
177.1411685035745
 30
0.0
 11
-68.04999999999964
 21
176.1411685035752
 31
0.0
  0
LINE
  5
16A
330
1F
100
AcDbEntity
  8
0
  6
Continuous
 62
     7
100
AcDbLine
 10
-68.04999999999964
 20
176.1411685035752
 30
0.0
 11
-68.04999999999964
 21
175.6411685035751
 31
0.0
  0
LINE
  5
16B
330
1F
100
AcDbEntity
  8
0
  6
Continuous
 62
     7
100
AcDbLine
 10
-68.04999999999964
 20
175.6411685035751
 30
0.0
 11
-68.04999999999959
 21
172.1411685035745
 31
0.0
  0
LINE
  5
16C
330
1F
100
AcDbEntity
  8
0
  6
Continuous
 62
     7
100
AcDbLine
 10
-68.19999999999968
 20
172.1411685035745
 30
0.0
 11
-71.29999999999987
 21
172.1411685035745
 31
0.0
  0
LINE
  5
16D
330
1F
100
AcDbEntity
  8
0
  6
Continuous
 62
     7
100
AcDbLine
 10
-68.04999999999959
 20
172.1411685035745
 30
0.0
 11
-68.19999999999968
 21
172.1411685035745
 31
0.0
  0
LINE
  5
16E
330
1F
100
AcDbEntity
  8
0
  6
Continuous
 62
     7
100
AcDbLine
 10
-44.09999999999994
 20
169.6411685035743
 30
0.0
 11
-46.09999999999972
 21
169.6411685035736
 31
0.0
  0
LINE
  5
16F
330
1F
100
AcDbEntity
  8
0
  6
Continuous
 62
     7
100
AcDbLine
 10
-70.35000000000005
 20
162.1411685035743
 30
0.0
 11
-70.34999999999994
 21
152.6411685035738
 31
0.0
  0
LINE
  5
170
330
1F
100
AcDbEntity
  8
0
  6
Continuous
 62
     7
100
AcDbLine
 10
-71.09999999999994
 20
152.6411685035735
 30
0.0
 11
-71.10000000000005
 21
162.1411685035743
 31
0.0
  0
LINE
  5
171
330
1F
100
AcDbEntity
  8
0
  6
Continuous
 62
     7
100
AcDbLine
 10
-70.72628273724294
 20
152.6411685035735
 30
0.0
 11
-70.90803963710803
 21
152.6411685035735
 31
0.0
  0
LINE
  5
172
330
1F
100
AcDbEntity
  8
0
  6
Continuous
 62
     7
100
AcDbLine
 10
-51.44999999999945
 20
188.1411685035745
 30
0.0
 11
-51.44999999999945
 21
187.6411685035745
 31
0.0
  0
LINE
  5
173
330
1F
100
AcDbEntity
  8
0
  6
Continuous
 62
     7
100
AcDbLine
 10
-46.89999999999949
 20
186.6411685035745
 30
0.0
 11
-49.09999999999943
 21
186.6411685035745
 31
0.0
  0
LINE
  5
174
330
1F
100
AcDbEntity
  8
0
  6
Continuous
 62
     7
100
AcDbLine
 10
-46.89999999999949
 20
186.6411685035745
 30
0.0
 11
-46.89999999999961
 21
172.1411685035743
 31
0.0
  0
LINE
  5
175
330
1F
100
AcDbEntity
  8
0
  6
Continuous
 62
     7
100
AcDbLine
 10
-45.89999999999949
 20
186.6411685035745
 30
0.0
 11
-46.89999999999949
 21
186.6411685035745
 31
0.0
  0
LINE
  5
176
330
1F
100
AcDbEntity
  8
0
  6
Continuous
 62
     7
100
AcDbLine
 10
-45.89999999999949
 20
186.6411685035745
 30
0.0
 11
-45.89999999999967
 21
172.1411685035739
 31
0.0
  0
LINE
  5
177
330
1F
100
AcDbEntity
  8
0
  6
Continuous
 62
     7
100
AcDbLine
 10
-45.89999999999949
 20
186.6411685035745
 30
0.0
 11
-45.89999999999949
 21
187.6411685035745
 31
0.0
  0
LINE
  5
178
330
1F
100
AcDbEntity
  8
0
  6
Continuous
 62
     7
100
AcDbLine
 10
-46.09999999999972
 20
169.6411685035736
 30
0.0
 11
-46.09999999999994
 21
152.6411685035739
 31
0.0
  0
LINE
  5
179
330
1F
100
AcDbEntity
  8
0
  6
Continuous
 62
     7
100
AcDbLine
 10
-46.39999999999949
 20
188.1411685035745
 30
0.0
 11
-49.09999999999943
 21
188.1411685035745
 31
0.0
  0
LINE
  5
17A
330
1F
100
AcDbEntity
  8
0
  6
Continuous
 62
     7
100
AcDbLine
 10
-47.09999999999989
 20
152.6411685035739
 30
0.0
 11
-47.10000000000005
 21
162.1411685035743
 31
0.0
  0
LINE
  5
17B
330
1F
100
AcDbEntity
  8
0
  6
Continuous
 62
     7
100
AcDbLine
 10
-47.27403725914817
 20
152.6411685035739
 30
0.0
 11
-47.29196036289172
 21
152.6411685035739
 31
0.0
  0
LINE
  5
17C
330
1F
100
AcDbEntity
  8
0
  6
Continuous
 62
     7
100
AcDbLine
 10
-47.47371726275699
 20
152.6411685035739
 30
0.0
 11
-47.29196036289172
 21
152.6411685035739
 31
0.0
  0
LINE
  5
17D
330
1F
100
AcDbEntity
  8
0
  6
Continuous
 62
     7
100
AcDbLine
 10
-47.09999999999989
 20
152.6411685035739
 30
0.0
 11
-47.27403725914817
 21
152.6411685035739
 31
0.0
  0
LINE
  5
17E
330
1F
100
AcDbEntity
  8
0
  6
Continuous
 62
     7
100
AcDbLine
 10
-47.62628273724292
 20
152.6411685035739
 30
0.0
 11
-47.84999999999989
 21
152.6411685035734
 31
0.0
  0
LINE
  5
17F
330
1F
100
AcDbEntity
  8
0
  6
Continuous
 62
     7
100
AcDbLine
 10
-49.09999999999943
 20
186.6411685035745
 30
0.0
 11
-49.09999999999943
 21
188.1411685035745
 31
0.0
  0
LINE
  5
180
330
1F
100
AcDbEntity
  8
0
  6
Continuous
 62
     7
100
AcDbLine
 10
-51.09999999999999
 20
162.1411685035743
 30
0.0
 11
-51.09999999999989
 21
152.6411685035738
 31
0.0
  0
LINE
  5
181
330
1F
100
AcDbEntity
  8
0
  6
Continuous
 62
     7
100
AcDbLine
 10
-66.39999999999944
 20
188.1411685035746
 30
0.0
 11
-66.39999999999944
 21
187.6411685035746
 31
0.0
  0
LINE
  5
182
330
1F
100
AcDbEntity
  8
0
  6
Continuous
 62
     7
100
AcDbLine
 10
-66.39999999999944
 20
188.1411685035746
 30
0.0
 11
-68.19999999999945
 21
188.1411685035746
 31
0.0
  0
LINE
  5
183
330
1F
100
AcDbEntity
  8
0
  6
Continuous
 62
     7
100
AcDbLine
 10
-68.19999999999945
 20
188.1411685035746
 30
0.0
 11
-68.19999999999945
 21
187.6411685035746
 31
0.0
  0
LINE
  5
184
330
1F
100
AcDbEntity
  8
0
  6
Continuous
 62
     7
100
AcDbLine
 10
-66.59999999999988
 20
186.1411685035744
 30
0.0
 11
-66.39999999999932
 21
186.1411685035746
 31
0.0
  0
LINE
  5
185
330
1F
100
AcDbEntity
  8
0
  6
Continuous
 62
     7
100
AcDbLine
 10
-68.19999999999945
 20
186.1411685035746
 30
0.0
 11
-66.59999999999988
 21
186.1411685035744
 31
0.0
  0
LINE
  5
186
330
1F
100
AcDbEntity
  8
0
  6
Continuous
 62
     7
100
AcDbLine
 10
-68.1999999999999
 20
177.1411685035744
 30
0.0
 11
-68.1999999999999
 21
177.3411685035744
 31
0.0
  0
LINE
  5
187
330
1F
100
AcDbEntity
  8
0
  6
Continuous
 62
     7
100
AcDbLine
 10
-68.19999999999945
 20
186.1411685035746
 30
0.0
 11
-68.19999999999945
 21
187.6411685035746
 31
0.0
  0
LINE
  5
188
330
1F
100
AcDbEntity
  8
0
  6
Continuous
 62
     7
100
AcDbLine
 10
-68.1999999999999
 20
177.8654716749961
 30
0.0
 11
-68.1999999999999
 21
179.1411685035744
 31
0.0
  0
LINE
  5
189
330
1F
100
AcDbEntity
  8
0
  6
Continuous
 62
     7
100
AcDbLine
 10
-68.1999999999999
 20
176.8411685035744
 30
0.0
 11
-68.1999999999999
 21
177.1411685035744
 31
0.0
  0
LINE
  5
18A
330
1F
100
AcDbEntity
  8
0
  6
Continuous
 62
     7
100
AcDbLine
 10
-68.1999999999999
 20
179.1411685035744
 30
0.0
 11
-68.19999999999945
 21
186.1411685035746
 31
0.0
  0
LINE
  5
18B
330
1F
100
AcDbEntity
  8
0
  6
Continuous
 62
     7
100
AcDbLine
 10
-68.04999999999964
 20
176.1411685035752
 30
0.0
 11
-66.54999999999941
 21
176.1411685035751
 31
0.0
  0
LINE
  5
18C
330
1F
100
AcDbEntity
  8
0
  6
Continuous
 62
     7
100
AcDbLine
 10
-67.84999999999994
 20
152.6411685035738
 30
0.0
 11
-67.85000000000005
 21
162.1411685035743
 31
0.0
  0
LINE
  5
18D
330
1F
100
AcDbEntity
  8
0
  6
Continuous
 62
     7
100
AcDbLine
 10
-68.1999999999999
 20
176.7805281346499
 30
0.0
 11
-68.1999999999999
 21
176.8411685035744
 31
0.0
  0
LINE
  5
18E
330
1F
100
AcDbEntity
  8
0
  6
Continuous
 62
     7
100
AcDbLine
 10
-68.1999999999999
 20
173.5018088724989
 30
0.0
 11
-68.1999999999999
 21
175.6411685035744
 31
0.0
  0
LINE
  5
18F
330
1F
100
AcDbEntity
  8
0
  6
Continuous
 62
     7
100
AcDbLine
 10
-68.1999999999999
 20
175.6411685035744
 30
0.0
 11
-68.1999999999999
 21
176.7805281346499
 31
0.0
  0
LINE
  5
190
330
1F
100
AcDbEntity
  8
0
  6
Continuous
 62
     7
100
AcDbLine
 10
-68.1999999999999
 20
173.4411685035744
 30
0.0
 11
-68.1999999999999
 21
173.5018088724989
 31
0.0
  0
LINE
  5
191
330
1F
100
AcDbEntity
  8
0
  6
Continuous
 62
     7
100
AcDbLine
 10
-68.19999999999968
 20
172.1411685035745
 30
0.0
 11
-68.1999999999999
 21
173.4411685035744
 31
0.0
  0
LINE
  5
192
330
1F
100
AcDbEntity
  8
0
  6
Continuous
 62
     7
100
AcDbLine
 10
-68.1999999999999
 20
177.3411685035744
 30
0.0
 11
-68.1999999999999
 21
177.8654716749961
 31
0.0
  0
LINE
  5
193
330
1F
100
AcDbEntity
  8
0
  6
Continuous
 62
     7
100
AcDbLine
 10
-66.59999999999988
 20
177.1411685035744
 30
0.0
 11
-66.54999999999941
 21
177.1411685035745
 31
0.0
  0
LINE
  5
194
330
1F
100
AcDbEntity
  8
0
  6
Continuous
 62
     7
100
AcDbLine
 10
-68.04999999999964
 20
177.1411685035745
 30
0.0
 11
-66.59999999999988
 21
177.1411685035744
 31
0.0
  0
LINE
  5
195
330
1F
100
AcDbEntity
  8
0
  6
Continuous
 62
     7
100
AcDbLine
 10
-66.39999999999932
 20
186.1411685035746
 30
0.0
 11
-66.39999999999944
 21
187.6411685035746
 31
0.0
  0
LINE
  5
196
330
1F
100
AcDbEntity
  8
0
  6
Continuous
 62
     7
100
AcDbLine
 10
-66.39999999999966
 20
172.1411685035743
 30
0.0
 11
-66.54999999999959
 21
172.1411685035743
 31
0.0
  0
LINE
  5
197
330
1F
100
AcDbEntity
  8
0
  6
Continuous
 62
     7
100
AcDbLine
 10
-66.54999999999941
 20
176.1411685035751
 30
0.0
 11
-66.54999999999959
 21
172.1411685035743
 31
0.0
  0
LINE
  5
198
330
1F
100
AcDbEntity
  8
0
  6
Continuous
 62
     7
100
AcDbLine
 10
-66.54999999999941
 20
177.1411685035745
 30
0.0
 11
-66.54999999999941
 21
176.1411685035751
 31
0.0
  0
LINE
  5
199
330
1F
100
AcDbEntity
  8
0
  6
Continuous
 62
     7
100
AcDbLine
 10
-67.09999999999994
 20
152.6411685035736
 30
0.0
 11
-67.10000000000005
 21
162.1411685035743
 31
0.0
  0
LINE
  5
19A
330
1F
100
AcDbEntity
  8
0
  6
Continuous
 62
     7
100
AcDbLine
 10
-66.39999999999966
 20
172.1411685035743
 30
0.0
 11
-66.39999999999932
 21
186.1411685035746
 31
0.0
  0
LINE
  5
19B
330
1F
100
AcDbEntity
  8
0
  6
DASHED
 62
     7
100
AcDbLine
 10
-52.79999999999987
 20
142.6411685035744
 30
0.0
 11
-66.09999999999988
 21
142.6411685035744
 31
0.0
  0
LINE
  5
19C
330
1F
100
AcDbEntity
  8
0
  6
DASHED
 62
     7
100
AcDbLine
 10
-52.09999999999988
 20
152.641168503574
 30
0.0
 11
-52.09999999999988
 21
151.1411685035743
 31
0.0
  0
LINE
  5
19D
330
1F
100
AcDbEntity
  8
0
  6
DASHED
 62
     7
100
AcDbLine
 10
-51.59999999999985
 20
142.6411685035743
 30
0.0
 11
-49.99999999999986
 21
142.6411685035743
 31
0.0
  0
LINE
  5
19E
330
1F
100
AcDbEntity
  8
0
  6
DASHED
 62
     7
100
AcDbLine
 10
-52.09999999999985
 20
142.6411685035743
 30
0.0
 11
-52.79999999999987
 21
142.6411685035744
 31
0.0
  0
LINE
  5
19F
330
1F
100
AcDbEntity
  8
0
  6
DASHED
 62
     7
100
AcDbLine
 10
-52.09999999999988
 20
151.1411685035743
 30
0.0
 11
-51.59999999999988
 21
151.1411685035743
 31
0.0
  0
LINE
  5
1A0
330
1F
100
AcDbEntity
  8
0
  6
DASHED
 62
     7
100
AcDbLine
 10
-52.09999999999985
 20
145.6411685035743
 30
0.0
 11
-51.59999999999985
 21
145.6411685035743
 31
0.0
  0
LINE
  5
1A1
330
1F
100
AcDbEntity
  8
0
  6
DASHED
 62
     7
100
AcDbLine
 10
-52.09999999999985
 20
145.6411685035743
 30
0.0
 11
-52.09999999999985
 21
142.6411685035743
 31
0.0
  0
LINE
  5
1A2
330
1F
100
AcDbEntity
  8
0
  6
DASHED
 62
     7
100
AcDbLine
 10
-51.59999999999988
 20
151.1411685035743
 30
0.0
 11
-51.59999999999988
 21
152.641168503574
 31
0.0
  0
LINE
  5
1A3
330
1F
100
AcDbEntity
  8
0
  6
DASHED
 62
     7
100
AcDbLine
 10
-51.59999999999985
 20
142.6411685035743
 30
0.0
 11
-51.59999999999985
 21
145.6411685035743
 31
0.0
  0
LINE
  5
1A4
330
1F
100
AcDbEntity
  8
0
  6
DASHED
 62
     7
100
AcDbLine
 10
-51.59999999999985
 20
145.6411685035743
 30
0.0
 11
-51.59999999999988
 21
151.1411685035743
 31
0.0
  0
LINE
  5
1A5
330
1F
100
AcDbEntity
  8
0
  6
DASHED
 62
     7
100
AcDbLine
 10
-49.99999999999986
 20
152.2018088724988
 30
0.0
 11
-49.99999999999986
 21
142.6411685035743
 31
0.0
  0
LINE
  5
1A6
330
1F
100
AcDbEntity
  8
0
  6
DASHED
 62
     7
100
AcDbLine
 10
-49.99999999999986
 20
152.641168503574
 30
0.0
 11
-49.99999999999986
 21
152.2018088724988
 31
0.0
  0
LINE
  5
1A7
330
1F
100
AcDbEntity
  8
0
  6
DASHED
 62
     7
100
AcDbLine
 10
-48.29999999999987
 20
152.5152033338098
 30
0.0
 11
-48.29999999999987
 21
152.641168503574
 31
0.0
  0
LINE
  5
1A8
330
1F
100
AcDbEntity
  8
0
  6
DASHED
 62
     7
100
AcDbLine
 10
-52.79999999999987
 20
142.6411685035744
 30
0.0
 11
-66.09999999999988
 21
142.6411685035744
 31
0.0
  0
LINE
  5
1A9
330
1F
100
AcDbEntity
  8
0
  6
DASHED
 62
     7
100
AcDbLine
 10
-68.19999999999985
 20
142.6411685035744
 30
0.0
 11
-66.59999999999988
 21
142.6411685035744
 31
0.0
  0
LINE
  5
1AA
330
1F
100
AcDbEntity
  8
0
  6
DASHED
 62
     7
100
AcDbLine
 10
-66.59999999999988
 20
145.6411685035744
 30
0.0
 11
-66.59999999999988
 21
142.6411685035744
 31
0.0
  0
LINE
  5
1AB
330
1F
100
AcDbEntity
  8
0
  6
DASHED
 62
     7
100
AcDbLine
 10
-68.19999999999985
 20
142.6411685035744
 30
0.0
 11
-68.19999999999985
 21
152.2018088724988
 31
0.0
  0
LINE
  5
1AC
330
1F
100
AcDbEntity
  8
0
  6
DASHED
 62
     7
100
AcDbLine
 10
-66.59999999999988
 20
151.1411685035744
 30
0.0
 11
-66.09999999999988
 21
151.1411685035744
 31
0.0
  0
LINE
  5
1AD
330
1F
100
AcDbEntity
  8
0
  6
DASHED
 62
     7
100
AcDbLine
 10
-66.09999999999988
 20
151.1411685035744
 30
0.0
 11
-66.09999999999988
 21
152.6411685035741
 31
0.0
  0
LINE
  5
1AE
330
1F
100
AcDbEntity
  8
0
  6
DASHED
 62
     7
100
AcDbLine
 10
-68.19999999999985
 20
152.2018088724988
 30
0.0
 11
-68.1999999999999
 21
155.4805281346499
 31
0.0
  0
LINE
  5
1AF
330
1F
100
AcDbEntity
  8
0
  6
DASHED
 62
     7
100
AcDbLine
 10
-66.59999999999988
 20
145.6411685035744
 30
0.0
 11
-66.09999999999988
 21
145.6411685035744
 31
0.0
  0
LINE
  5
1B0
330
1F
100
AcDbEntity
  8
0
  6
DASHED
 62
     7
100
AcDbLine
 10
-69.89999999999989
 20
155.1671336733389
 30
0.0
 11
-69.90000000000745
 21
152.5152033337951
 31
0.0
  0
LINE
  5
1B1
330
1F
100
AcDbEntity
  8
0
  6
DASHED
 62
     7
100
AcDbLine
 10
-66.59999999999988
 20
152.6411685035741
 30
0.0
 11
-66.59999999999988
 21
151.1411685035744
 31
0.0
  0
LINE
  5
1B2
330
1F
100
AcDbEntity
  8
0
  6
DASHED
 62
     7
100
AcDbLine
 10
-66.59999999999988
 20
151.1411685035744
 30
0.0
 11
-66.59999999999988
 21
145.6411685035744
 31
0.0
  0
LINE
  5
1B3
330
1F
100
AcDbEntity
  8
0
  6
DASHED
 62
     7
100
AcDbLine
 10
-66.09999999999988
 20
142.6411685035744
 30
0.0
 11
-66.09999999999988
 21
145.6411685035744
 31
0.0
  0
LINE
  5
1B4
330
1F
100
AcDbEntity
  8
0
  6
DASHED
 62
     7
100
AcDbLine
 10
-68.1999999999999
 20
155.4805281346499
 30
0.0
 11
-68.1999999999999
 21
162.141168503575
 31
0.0
  0
LINE
  5
1B5
330
1F
100
AcDbEntity
  8
0
  6
DASHED
 62
     7
100
AcDbLine
 10
-52.79999999999987
 20
142.6411685035744
 30
0.0
 11
-52.79999999999987
 21
152.641168503574
 31
0.0
  0
LINE
  5
1B6
330
1F
100
AcDbEntity
  8
0
  6
DASHED
 62
     7
100
AcDbLine
 10
-68.1999999999999
 20
175.6411685035744
 30
0.0
 11
-68.04999999999964
 21
175.6411685035751
 31
0.0
  0
LINE
  5
1B7
330
1F
100
AcDbEntity
  8
0
  6
DASHED
 62
     7
100
AcDbLine
 10
-68.19999999999945
 20
186.1411685035746
 30
0.0
 11
-66.59999999999988
 21
186.1411685035744
 31
0.0
  0
LINE
  5
1B8
330
1F
100
AcDbEntity
  8
0
  6
DASHED
 62
     7
100
AcDbLine
 10
-66.59999999999988
 20
179.1411685035744
 30
0.0
 11
-68.1999999999999
 21
179.1411685035744
 31
0.0
  0
LINE
  5
1B9
330
1F
100
AcDbEntity
  8
0
  6
DASHED
 62
     7
100
AcDbLine
 10
-68.1999999999999
 20
177.1411685035744
 30
0.0
 11
-68.1999999999999
 21
177.3411685035744
 31
0.0
  0
LINE
  5
1BA
330
1F
100
AcDbEntity
  8
0
  6
DASHED
 62
     7
100
AcDbLine
 10
-68.1999999999999
 20
177.8654716749961
 30
0.0
 11
-68.1999999999999
 21
179.1411685035744
 31
0.0
  0
LINE
  5
1BB
330
1F
100
AcDbEntity
  8
0
  6
DASHED
 62
     7
100
AcDbLine
 10
-68.1999999999999
 20
176.8411685035744
 30
0.0
 11
-68.1999999999999
 21
177.1411685035744
 31
0.0
  0
LINE
  5
1BC
330
1F
100
AcDbEntity
  8
0
  6
DASHED
 62
     7
100
AcDbLine
 10
-68.1999999999999
 20
179.1411685035744
 30
0.0
 11
-68.19999999999945
 21
186.1411685035746
 31
0.0
  0
LINE
  5
1BD
330
1F
100
AcDbEntity
  8
0
  6
DASHED
 62
     7
100
AcDbLine
 10
-68.1999999999999
 20
176.7805281346499
 30
0.0
 11
-68.1999999999999
 21
176.8411685035744
 31
0.0
  0
LINE
  5
1BE
330
1F
100
AcDbEntity
  8
0
  6
DASHED
 62
     7
100
AcDbLine
 10
-68.1999999999999
 20
173.5018088724989
 30
0.0
 11
-68.1999999999999
 21
175.6411685035744
 31
0.0
  0
LINE
  5
1BF
330
1F
100
AcDbEntity
  8
0
  6
DASHED
 62
     7
100
AcDbLine
 10
-68.1999999999999
 20
175.6411685035744
 30
0.0
 11
-68.1999999999999
 21
176.7805281346499
 31
0.0
  0
LINE
  5
1C0
330
1F
100
AcDbEntity
  8
0
  6
DASHED
 62
     7
100
AcDbLine
 10
-68.1999999999999
 20
173.4411685035744
 30
0.0
 11
-68.1999999999999
 21
173.5018088724989
 31
0.0
  0
LINE
  5
1C1
330
1F
100
AcDbEntity
  8
0
  6
DASHED
 62
     7
100
AcDbLine
 10
-68.19999999999968
 20
172.1411685035745
 30
0.0
 11
-68.1999999999999
 21
173.4411685035744
 31
0.0
  0
LINE
  5
1C2
330
1F
100
AcDbEntity
  8
0
  6
DASHED
 62
     7
100
AcDbLine
 10
-68.1999999999999
 20
177.1411685035744
 30
0.0
 11
-68.04999999999964
 21
177.1411685035745
 31
0.0
  0
LINE
  5
1C3
330
1F
100
AcDbEntity
  8
0
  6
DASHED
 62
     7
100
AcDbLine
 10
-68.1999999999999
 20
177.3411685035744
 30
0.0
 11
-68.1999999999999
 21
177.8654716749961
 31
0.0
  0
LINE
  5
1C4
330
1F
100
AcDbEntity
  8
0
  6
DASHED
 62
     7
100
AcDbLine
 10
-66.59999999999988
 20
177.3411685035744
 30
0.0
 11
-68.1999999999999
 21
177.3411685035744
 31
0.0
  0
LINE
  5
1C5
330
1F
100
AcDbEntity
  8
0
  6
DASHED
 62
     7
100
AcDbLine
 10
-66.59999999999988
 20
177.8654716749961
 30
0.0
 11
-68.1999999999999
 21
177.8654716749961
 31
0.0
  0
LINE
  5
1C6
330
1F
100
AcDbEntity
  8
0
  6
DASHED
 62
     7
100
AcDbLine
 10
-68.04999999999964
 20
177.1411685035745
 30
0.0
 11
-66.59999999999988
 21
177.1411685035744
 31
0.0
  0
LINE
  5
1C7
330
1F
100
AcDbEntity
  8
0
  6
DASHED
 62
     7
100
AcDbLine
 10
-66.59999999999988
 20
177.1411685035744
 30
0.0
 11
-66.59999999999988
 21
177.3411685035744
 31
0.0
  0
LINE
  5
1C8
330
1F
100
AcDbEntity
  8
0
  6
DASHED
 62
     7
100
AcDbLine
 10
-66.59999999999988
 20
177.8654716749961
 30
0.0
 11
-66.59999999999988
 21
177.6411685035744
 31
0.0
  0
LINE
  5
1C9
330
1F
100
AcDbEntity
  8
0
  6
DASHED
 62
     7
100
AcDbLine
 10
-66.59999999999988
 20
177.6411685035744
 30
0.0
 11
-66.59999999999988
 21
177.3411685035744
 31
0.0
  0
LINE
  5
1CA
330
1F
100
AcDbEntity
  8
0
  6
DASHED
 62
     7
100
AcDbLine
 10
-66.59999999999988
 20
179.1411685035744
 30
0.0
 11
-66.59999999999988
 21
177.8654716749961
 31
0.0
  0
LINE
  5
1CB
330
1F
100
AcDbEntity
  8
0
  6
DASHED
 62
     7
100
AcDbLine
 10
-66.59999999999988
 20
183.1411685035744
 30
0.0
 11
-66.59999999999988
 21
186.1411685035744
 31
0.0
  0
LINE
  5
1CC
330
1F
100
AcDbEntity
  8
0
  6
DASHED
 62
     7
100
AcDbLine
 10
-66.3999999999995
 20
177.6411685035744
 30
0.0
 11
-66.59999999999988
 21
177.6411685035744
 31
0.0
  0
LINE
  5
1CD
330
1F
100
AcDbEntity
  8
0
  6
DASHED
 62
     7
100
AcDbLine
 10
-66.59999999999988
 20
183.1411685035744
 30
0.0
 11
-66.3999999999995
 21
183.1411685035744
 31
0.0
  0
LINE
  5
1CE
330
1F
100
AcDbEntity
  8
0
  6
DASHED
 62
     7
100
AcDbLine
 10
-66.54999999999959
 20
172.8411685035744
 30
0.0
 11
-66.39999999999955
 21
172.8411685035744
 31
0.0
  0
LINE
  5
1CF
330
1F
100
AcDbEntity
  8
0
  6
DASHED
 62
     7
100
AcDbLine
 10
-66.59999999999988
 20
179.1411685035744
 30
0.0
 11
-66.59999999999988
 21
183.1411685035744
 31
0.0
  0
LINE
  5
1D0
330
1F
100
AcDbEntity
  8
1
  6
Continuous
 62
     7
100
AcDbLine
 10
-47.10000000000005
 20
162.1411685035743
 30
0.0
 11
-51.09999999999999
 21
162.1411685035743
 31
0.0
  0
LINE
  5
1D1
330
1F
100
AcDbEntity
  8
1
  6
Continuous
 62
     7
100
AcDbLine
 10
-71.10000000000005
 20
162.1411685035743
 30
0.0
 11
-67.10000000000005
 21
162.1411685035743
 31
0.0
  0
LINE
  5
1D2
330
1F
100
AcDbEntity
  8
0
  6
Continuous
 62
     7
100
AcDbLine
 10
-50.3499999999996
 20
162.1411685035743
 30
0.0
 11
-50.34999999999994
 21
152.6411685035735
 31
0.0
  0
LINE
  5
1D3
330
1F
100
AcDbEntity
  8
0
  6
Continuous
 62
     7
100
AcDbLine
 10
-47.84999999999989
 20
152.6411685035734
 30
0.0
 11
-47.8499999999996
 21
162.1411685035743
 31
0.0
  0
LINE
  5
1D4
330
1F
100
AcDbEntity
  8
0
  6
Continuous
 62
     7
100
AcDbLine
 10
-135.65
 20
155.1411685035736
 30
0.0
 11
-135.6500000000002
 21
152.6411685035733
 31
0.0
  0
LINE
  5
1D5
330
1F
100
AcDbEntity
  8
0
  6
Continuous
 62
     7
100
AcDbLine
 10
-145.0500000000002
 20
169.6411685035736
 30
0.0
 11
-145.0500000000002
 21
152.6411685035733
 31
0.0
  0
LINE
  5
1D6
330
1F
100
AcDbEntity
  8
0
  6
Continuous
 62
     7
100
AcDbLine
 10
-134.4500000000002
 20
152.6411685035733
 30
0.0
 11
-134.4500000000002
 21
169.6411685035741
 31
0.0
  0
LINE
  5
1D7
330
1F
100
AcDbEntity
  8
0
  6
Continuous
 62
     7
100
AcDbLine
 10
-123.3000000000002
 20
172.1411685035737
 30
0.0
 11
-124.3000000000002
 21
172.1411685035737
 31
0.0
  0
LINE
  5
1D8
330
1F
100
AcDbEntity
  8
0
  6
Continuous
 62
     7
100
AcDbLine
 10
-127.6000000000002
 20
172.1411685035737
 30
0.0
 11
-144.3000000000002
 21
172.1411685035737
 31
0.0
  0
LINE
  5
1D9
330
1F
100
AcDbEntity
  8
0
  6
Continuous
 62
     7
100
AcDbLine
 10
-115.6500000000001
 20
169.6411685035743
 30
0.0
 11
-119.7500000000001
 21
169.6411685035743
 31
0.0
  0
LINE
  5
1DA
330
1F
100
AcDbEntity
  8
0
  6
Continuous
 62
     7
100
AcDbLine
 10
-107.0000000000002
 20
188.1411685035739
 30
0.0
 11
-123.3000000000002
 21
188.1411685035739
 31
0.0
  0
LINE
  5
1DB
330
1F
100
AcDbEntity
  8
0
  6
Continuous
 62
     7
100
AcDbLine
 10
-123.3000000000002
 20
188.1411685035739
 30
0.0
 11
-123.3000000000002
 21
187.6411685035739
 31
0.0
  0
LINE
  5
1DC
330
1F
100
AcDbEntity
  8
0
  6
Continuous
 62
     7
100
AcDbLine
 10
-123.3000000000002
 20
188.1411685035739
 30
0.0
 11
-123.8000000000002
 21
188.1411685035739
 31
0.0
  0
LINE
  5
1DD
330
1F
100
AcDbEntity
  8
0
  6
Continuous
 62
     7
100
AcDbLine
 10
-124.8000000000002
 20
172.1411685035737
 30
0.0
 11
-126.4000000000002
 21
172.1411685035737
 31
0.0
  0
LINE
  5
1DE
330
1F
100
AcDbEntity
  8
0
  6
Continuous
 62
     7
100
AcDbLine
 10
-131.2500000000002
 20
188.1411685035739
 30
0.0
 11
-135.9500000000002
 21
188.1411685035739
 31
0.0
  0
LINE
  5
1DF
330
1F
100
AcDbEntity
  8
0
  6
Continuous
 62
     7
100
AcDbLine
 10
-131.2500000000002
 20
186.6411685035739
 30
0.0
 11
-135.9500000000002
 21
186.6411685035739
 31
0.0
  0
LINE
  5
1E0
330
1F
100
AcDbEntity
  8
0
  6
Continuous
 62
     7
100
AcDbLine
 10
-130.3500000000002
 20
169.6411685035741
 30
0.0
 11
-134.4500000000002
 21
169.6411685035741
 31
0.0
  0
LINE
  5
1E1
330
1F
100
AcDbEntity
  8
0
  6
Continuous
 62
     7
100
AcDbLine
 10
-123.3000000000002
 20
187.6411685035739
 30
0.0
 11
-123.3000000000002
 21
172.1411685035737
 31
0.0
  0
LINE
  5
1E2
330
1F
100
AcDbEntity
  8
0
  6
Continuous
 62
     7
100
AcDbLine
 10
-106.5000000000002
 20
188.1411685035739
 30
0.0
 11
-107.0000000000002
 21
188.1411685035739
 31
0.0
  0
LINE
  5
1E3
330
1F
100
AcDbEntity
  8
0
  6
Continuous
 62
     7
100
AcDbLine
 10
-107.0000000000002
 20
188.1411685035739
 30
0.0
 11
-107.0000000000002
 21
187.6411685035739
 31
0.0
  0
LINE
  5
1E4
330
1F
100
AcDbEntity
  8
0
  6
Continuous
 62
     7
100
AcDbLine
 10
-107.0000000000002
 20
187.6411685035739
 30
0.0
 11
-107.0000000000002
 21
172.1411685035737
 31
0.0
  0
LINE
  5
1E5
330
1F
100
AcDbEntity
  8
0
  6
Continuous
 62
     7
100
AcDbLine
 10
-106.0000000000002
 20
187.6411685035739
 30
0.0
 11
-106.0000000000002
 21
172.1411685035737
 31
0.0
  0
LINE
  5
1E6
330
1F
100
AcDbEntity
  8
0
  6
Continuous
 62
     7
100
AcDbLine
 10
-105.3000000000002
 20
188.1411685035739
 30
0.0
 11
-105.5000000000002
 21
188.1411685035739
 31
0.0
  0
LINE
  5
1E7
330
1F
100
AcDbEntity
  8
0
  6
Continuous
 62
     7
100
AcDbLine
 10
-105.5000000000002
 20
188.1411685035739
 30
0.0
 11
-106.5000000000002
 21
188.1411685035739
 31
0.0
  0
LINE
  5
1E8
330
1F
100
AcDbEntity
  8
0
  6
Continuous
 62
     7
100
AcDbLine
 10
-104.8000000000002
 20
177.1411685035739
 30
0.0
 11
-104.8000000000002
 21
187.6411685035739
 31
0.0
  0
LINE
  5
1E9
330
1F
100
AcDbEntity
  8
0
  6
Continuous
 62
     7
100
AcDbLine
 10
-104.8000000000002
 20
176.1411685035745
 30
0.0
 11
-104.8000000000002
 21
177.1411685035739
 31
0.0
  0
LINE
  5
1EA
330
1F
100
AcDbEntity
  8
0
  6
Continuous
 62
     7
100
AcDbLine
 10
-104.8000000000002
 20
172.1411685035737
 30
0.0
 11
-104.8000000000002
 21
176.1411685035745
 31
0.0
  0
LINE
  5
1EB
330
1F
100
AcDbEntity
  8
0
  6
Continuous
 62
     7
100
AcDbLine
 10
-103.0000000000001
 20
161.1411685035737
 30
0.0
 11
-103.0000000000001
 21
162.1411685035737
 31
0.0
  0
LINE
  5
1EC
330
1F
100
AcDbEntity
  8
0
  6
Continuous
 62
     7
100
AcDbLine
 10
-103.0000000000001
 20
152.6411685035733
 30
0.0
 11
-103.0000000000001
 21
161.1411685035737
 31
0.0
  0
LINE
  5
1ED
330
1F
100
AcDbEntity
  8
0
  6
Continuous
 62
     7
100
AcDbLine
 10
-103.0000000000001
 20
162.1411685035737
 30
0.0
 11
-103.0000000000001
 21
169.6411685035737
 31
0.0
  0
LINE
  5
1EE
330
1F
100
AcDbEntity
  8
0
  6
Continuous
 62
     7
100
AcDbLine
 10
-105.0500000000002
 20
152.6411685035733
 30
0.0
 11
-105.0500000000002
 21
169.6411685035737
 31
0.0
  0
LINE
  5
1EF
330
1F
100
AcDbEntity
  8
0
  6
Continuous
 62
     7
100
AcDbLine
 10
-115.6500000000001
 20
152.6411685035733
 30
0.0
 11
-115.6500000000001
 21
169.6411685035743
 31
0.0
  0
LINE
  5
1F0
330
1F
100
AcDbEntity
  8
0
  6
Continuous
 62
     7
100
AcDbLine
 10
-103.0000000000001
 20
162.1411685035737
 30
0.0
 11
-102.3679491924311
 21
162.1411685035737
 31
0.0
  0
LINE
  5
1F1
330
1F
100
AcDbEntity
  8
0
  6
Continuous
 62
     7
100
AcDbLine
 10
-119.7500000000001
 20
155.1671336733382
 30
0.0
 11
-119.7500000000001
 21
155.4805281346492
 31
0.0
  0
LINE
  5
1F2
330
1F
100
AcDbEntity
  8
0
  6
Continuous
 62
     7
100
AcDbLine
 10
-119.7500000000001
 20
152.6411685035733
 30
0.0
 11
-119.7500000000001
 21
155.1671336733382
 31
0.0
  0
LINE
  5
1F3
330
1F
100
AcDbEntity
  8
0
  6
Continuous
 62
     7
100
AcDbLine
 10
-119.7500000000001
 20
155.4805281346492
 30
0.0
 11
-119.7500000000001
 21
169.6411685035743
 31
0.0
  0
LINE
  5
1F4
330
1F
100
AcDbEntity
  8
0
  6
Continuous
 62
     7
100
AcDbLine
 10
-114.45
 20
155.1411685035737
 30
0.0
 11
-114.4500000000001
 21
152.6411685035733
 31
0.0
  0
LINE
  5
1F5
330
1F
100
AcDbEntity
  8
0
  6
Continuous
 62
     7
100
AcDbLine
 10
-103.0000000000001
 20
152.6411685035733
 30
0.0
 11
-102.7154763476512
 21
152.6411685035733
 31
0.0
  0
LINE
  5
1F6
330
1F
100
AcDbEntity
  8
0
  6
Continuous
 62
     7
100
AcDbLine
 10
-113.95
 20
155.6411685035737
 30
0.0
 11
-106.7500000000001
 21
155.6411685035737
 31
0.0
  0
LINE
  5
1F7
330
1F
100
AcDbEntity
  8
0
  6
Continuous
 62
     7
100
AcDbLine
 10
-102.7154763476512
 20
152.6411685035733
 30
0.0
 11
-102.3845236523476
 21
152.6411685035733
 31
0.0
  0
LINE
  5
1F8
330
1F
100
AcDbEntity
  8
0
  6
Continuous
 62
     7
100
AcDbLine
 10
-106.2500000000001
 20
152.6411685035733
 30
0.0
 11
-106.2500000000001
 21
155.1411685035737
 31
0.0
  0
LINE
  5
1F9
330
1F
100
AcDbEntity
  8
0
  6
Continuous
 62
     7
100
AcDbLine
 10
-102.1000000000001
 20
161.1411685035737
 30
0.0
 11
-102.1000000000001
 21
152.6411685035733
 31
0.0
  0
LINE
  5
1FA
330
1F
100
AcDbEntity
  8
0
  6
Continuous
 62
     7
100
AcDbLine
 10
-135.9500000000002
 20
188.1411685035739
 30
0.0
 11
-135.9500000000002
 21
187.6411685035739
 31
0.0
  0
LINE
  5
1FB
330
1F
100
AcDbEntity
  8
0
  6
Continuous
 62
     7
100
AcDbLine
 10
-140.2500000000002
 20
188.1411685035739
 30
0.0
 11
-135.9500000000002
 21
188.1411685035739
 31
0.0
  0
LINE
  5
1FC
330
1F
100
AcDbEntity
  8
0
  6
Continuous
 62
     7
100
AcDbLine
 10
-135.9500000000002
 20
187.6411685035739
 30
0.0
 11
-135.9500000000002
 21
186.6411685035739
 31
0.0
  0
LINE
  5
1FD
330
1F
100
AcDbEntity
  8
0
  6
Continuous
 62
     7
100
AcDbLine
 10
-140.2500000000002
 20
188.1411685035739
 30
0.0
 11
-140.2500000000002
 21
187.6411685035739
 31
0.0
  0
LINE
  5
1FE
330
1F
100
AcDbEntity
  8
0
  6
Continuous
 62
     7
100
AcDbLine
 10
-140.2500000000002
 20
186.6411685035739
 30
0.0
 11
-140.2500000000002
 21
187.6411685035739
 31
0.0
  0
LINE
  5
1FF
330
1F
100
AcDbEntity
  8
0
  6
Continuous
 62
     7
100
AcDbLine
 10
-142.6000000000002
 20
186.6411685035739
 30
0.0
 11
-140.2500000000002
 21
186.6411685035739
 31
0.0
  0
LINE
  5
200
330
1F
100
AcDbEntity
  8
0
  6
Continuous
 62
     7
100
AcDbLine
 10
-140.2500000000002
 20
188.1411685035739
 30
0.0
 11
-142.6000000000002
 21
188.1411685035739
 31
0.0
  0
LINE
  5
201
330
1F
100
AcDbEntity
  8
0
  6
Continuous
 62
     7
100
AcDbLine
 10
-142.6000000000002
 20
188.1411685035739
 30
0.0
 11
-144.8000000000002
 21
188.1411685035739
 31
0.0
  0
LINE
  5
202
330
1F
100
AcDbEntity
  8
0
  6
Continuous
 62
     7
100
AcDbLine
 10
-142.6000000000002
 20
186.6411685035739
 30
0.0
 11
-142.6000000000002
 21
188.1411685035739
 31
0.0
  0
LINE
  5
203
330
1F
100
AcDbEntity
  8
0
  6
Continuous
 62
     7
100
AcDbLine
 10
-145.3000000000002
 20
177.1411685035739
 30
0.0
 11
-145.3000000000002
 21
176.1411685035736
 31
0.0
  0
LINE
  5
204
330
1F
100
AcDbEntity
  8
0
  6
Continuous
 62
     7
100
AcDbLine
 10
-145.3000000000002
 20
176.1411685035736
 30
0.0
 11
-145.3000000000002
 21
172.1411685035737
 31
0.0
  0
LINE
  5
205
330
1F
100
AcDbEntity
  8
0
  6
Continuous
 62
     7
100
AcDbLine
 10
-142.6000000000002
 20
186.6411685035739
 30
0.0
 11
-144.3000000000002
 21
186.6411685035739
 31
0.0
  0
LINE
  5
206
330
1F
100
AcDbEntity
  8
0
  6
Continuous
 62
     7
100
AcDbLine
 10
-144.3000000000002
 20
186.6411685035739
 30
0.0
 11
-145.3000000000002
 21
186.6411685035739
 31
0.0
  0
LINE
  5
207
330
1F
100
AcDbEntity
  8
0
  6
Continuous
 62
     7
100
AcDbLine
 10
-145.3000000000002
 20
187.6411685035739
 30
0.0
 11
-145.3000000000002
 21
186.6411685035739
 31
0.0
  0
LINE
  5
208
330
1F
100
AcDbEntity
  8
0
  6
Continuous
 62
     7
100
AcDbLine
 10
-145.3000000000002
 20
186.6411685035739
 30
0.0
 11
-145.3000000000002
 21
177.1411685035739
 31
0.0
  0
LINE
  5
209
330
1F
100
AcDbEntity
  8
0
  6
Continuous
 62
     7
100
AcDbLine
 10
-144.3000000000002
 20
186.6411685035739
 30
0.0
 11
-144.3000000000002
 21
172.1411685035737
 31
0.0
  0
LINE
  5
20A
330
1F
100
AcDbEntity
  8
0
  6
Continuous
 62
     7
100
AcDbLine
 10
-126.8071067811867
 20
188.1411685035739
 30
0.0
 11
-127.1000000000002
 21
188.1411685035739
 31
0.0
  0
LINE
  5
20B
330
1F
100
AcDbEntity
  8
0
  6
Continuous
 62
     7
100
AcDbLine
 10
-127.1000000000002
 20
188.1411685035739
 30
0.0
 11
-127.6000000000002
 21
188.1411685035739
 31
0.0
  0
LINE
  5
20C
330
1F
100
AcDbEntity
  8
0
  6
Continuous
 62
     7
100
AcDbLine
 10
-124.3928932188137
 20
188.1411685035739
 30
0.0
 11
-126.8071067811867
 21
188.1411685035739
 31
0.0
  0
LINE
  5
20D
330
1F
100
AcDbEntity
  8
0
  6
Continuous
 62
     7
100
AcDbLine
 10
-123.8000000000002
 20
188.1411685035739
 30
0.0
 11
-124.3928932188137
 21
188.1411685035739
 31
0.0
  0
LINE
  5
20E
330
1F
100
AcDbEntity
  8
0
  6
Continuous
 62
     7
100
AcDbLine
 10
-131.2500000000002
 20
188.1411685035739
 30
0.0
 11
-127.6000000000002
 21
188.1411685035739
 31
0.0
  0
LINE
  5
20F
330
1F
100
AcDbEntity
  8
0
  6
Continuous
 62
     7
100
AcDbLine
 10
-127.6000000000002
 20
188.1411685035739
 30
0.0
 11
-127.6000000000002
 21
187.6411685035739
 31
0.0
  0
LINE
  5
210
330
1F
100
AcDbEntity
  8
0
  6
Continuous
 62
     7
100
AcDbLine
 10
-131.2500000000002
 20
188.1411685035739
 30
0.0
 11
-131.2500000000002
 21
187.6411685035739
 31
0.0
  0
LINE
  5
211
330
1F
100
AcDbEntity
  8
0
  6
Continuous
 62
     7
100
AcDbLine
 10
-130.3500000000002
 20
169.6411685035741
 30
0.0
 11
-130.3500000000002
 21
152.6411685035733
 31
0.0
  0
LINE
  5
212
330
1F
100
AcDbEntity
  8
0
  6
Continuous
 62
     7
100
AcDbLine
 10
-129.1500000000002
 20
152.6411685035733
 30
0.0
 11
-129.15
 21
155.1411685035736
 31
0.0
  0
LINE
  5
213
330
1F
100
AcDbEntity
  8
0
  6
Continuous
 62
     7
100
AcDbLine
 10
-131.2500000000002
 20
186.6411685035739
 30
0.0
 11
-131.2500000000002
 21
187.6411685035739
 31
0.0
  0
LINE
  5
214
330
1F
100
AcDbEntity
  8
0
  6
Continuous
 62
     7
100
AcDbLine
 10
-124.3000000000002
 20
177.141168503574
 30
0.0
 11
-124.3000000000002
 21
176.1411685035736
 31
0.0
  0
LINE
  5
215
330
1F
100
AcDbEntity
  8
0
  6
Continuous
 62
     7
100
AcDbLine
 10
-124.3000000000002
 20
177.141168503574
 30
0.0
 11
-124.3000000000002
 21
187.6411685035739
 31
0.0
  0
LINE
  5
216
330
1F
100
AcDbEntity
  8
0
  6
Continuous
 62
     7
100
AcDbLine
 10
-126.6000000000002
 20
187.6411685035739
 30
0.0
 11
-126.6000000000002
 21
172.1411685035737
 31
0.0
  0
LINE
  5
217
330
1F
100
AcDbEntity
  8
0
  6
Continuous
 62
     7
100
AcDbLine
 10
-127.6000000000002
 20
187.6411685035739
 30
0.0
 11
-127.6000000000002
 21
172.1411685035737
 31
0.0
  0
LINE
  5
218
330
1F
100
AcDbEntity
  8
0
  6
Continuous
 62
     7
100
AcDbLine
 10
-124.6000000000002
 20
177.141168503574
 30
0.0
 11
-124.6000000000002
 21
177.2811685035738
 31
0.0
  0
LINE
  5
219
330
1F
100
AcDbEntity
  8
0
  6
Continuous
 62
     7
100
AcDbLine
 10
-124.6000000000002
 20
178.1598632508209
 30
0.0
 11
-124.6000000000002
 21
187.6411685035739
 31
0.0
  0
LINE
  5
21A
330
1F
100
AcDbEntity
  8
0
  6
Continuous
 62
     7
100
AcDbLine
 10
-125.1000000000002
 20
177.141168503574
 30
0.0
 11
-124.3000000000002
 21
177.141168503574
 31
0.0
  0
LINE
  5
21B
330
1F
100
AcDbEntity
  8
0
  6
Continuous
 62
     7
100
AcDbLine
 10
-126.1000000000002
 20
172.4411685035737
 30
0.0
 11
-126.1000000000002
 21
176.141168503574
 31
0.0
  0
LINE
  5
21C
330
1F
100
AcDbEntity
  8
0
  6
Continuous
 62
     7
100
AcDbLine
 10
-124.3000000000002
 20
172.1411685035737
 30
0.0
 11
-124.3000000000002
 21
176.1411685035736
 31
0.0
  0
LINE
  5
21D
330
1F
100
AcDbEntity
  8
0
  6
Continuous
 62
     7
100
AcDbLine
 10
-124.6000000000002
 20
172.1411685035737
 30
0.0
 11
-124.6000000000002
 21
175.8411685035736
 31
0.0
  0
LINE
  5
21E
330
1F
100
AcDbEntity
  8
0
  6
Continuous
 62
     7
100
AcDbLine
 10
-124.8000000000002
 20
172.1411685035737
 30
0.0
 11
-124.8000000000002
 21
175.6411685035736
 31
0.0
  0
LINE
  5
21F
330
1F
100
AcDbEntity
  8
0
  6
Continuous
 62
     7
100
AcDbLine
 10
-124.3000000000002
 20
172.1411685035737
 30
0.0
 11
-124.6000000000002
 21
172.1411685035737
 31
0.0
  0
LINE
  5
220
330
1F
100
AcDbEntity
  8
0
  6
Continuous
 62
     7
100
AcDbLine
 10
-126.4000000000002
 20
172.1411685035737
 30
0.0
 11
-126.6000000000002
 21
172.1411685035737
 31
0.0
  0
LINE
  5
221
330
1F
100
AcDbEntity
  8
0
  6
Continuous
 62
     7
100
AcDbLine
 10
-126.6000000000002
 20
172.1411685035737
 30
0.0
 11
-127.6000000000002
 21
172.1411685035737
 31
0.0
  0
LINE
  5
222
330
1F
100
AcDbEntity
  8
0
  6
Continuous
 62
     7
100
AcDbLine
 10
-124.6000000000002
 20
172.1411685035737
 30
0.0
 11
-124.8000000000002
 21
172.1411685035737
 31
0.0
  0
LINE
  5
223
330
1F
100
AcDbEntity
  8
0
  6
Continuous
 62
     7
100
AcDbLine
 10
-124.3000000000002
 20
176.1411685035736
 30
0.0
 11
-124.8000000000002
 21
175.6411685035736
 31
0.0
  0
LINE
  5
224
330
1F
100
AcDbEntity
  8
0
  6
Continuous
 62
     7
100
AcDbLine
 10
-145.3000000000002
 20
176.1411685035736
 30
0.0
 11
-145.8000000000002
 21
175.6411685035736
 31
0.0
  0
LINE
  5
225
330
1F
100
AcDbEntity
  8
0
  6
Continuous
 62
     7
100
AcDbLine
 10
-145.8000000000002
 20
175.6411685035736
 30
0.0
 11
-145.8000000000002
 21
172.1411685035739
 31
0.0
  0
LINE
  5
226
330
1F
100
AcDbEntity
  8
0
  6
Continuous
 62
     7
100
AcDbLine
 10
-147.1000000000001
 20
176.1411685035739
 30
0.0
 11
-147.1000000000001
 21
172.1411685035736
 31
0.0
  0
LINE
  5
227
330
1F
100
AcDbEntity
  8
0
  6
Continuous
 62
     7
100
AcDbLine
 10
-145.3000000000002
 20
177.1411685035739
 30
0.0
 11
-146.1000000000001
 21
177.1411685035739
 31
0.0
  0
LINE
  5
228
330
1F
100
AcDbEntity
  8
0
  6
Continuous
 62
     7
100
AcDbLine
 10
-147.1000000000001
 20
169.6411685035736
 30
0.0
 11
-147.1000000000001
 21
172.1411685035736
 31
0.0
  0
LINE
  5
229
330
1F
100
AcDbEntity
  8
0
  6
Continuous
 62
     7
100
AcDbLine
 10
-145.3000000000002
 20
172.1411685035737
 30
0.0
 11
-145.8000000000002
 21
172.1411685035739
 31
0.0
  0
LINE
  5
22A
330
1F
100
AcDbEntity
  8
0
  6
Continuous
 62
     7
100
AcDbLine
 10
-145.8000000000002
 20
172.1411685035739
 30
0.0
 11
-147.1000000000001
 21
172.1411685035736
 31
0.0
  0
LINE
  5
22B
330
1F
100
AcDbEntity
  8
0
  6
Continuous
 62
     7
100
AcDbLine
 10
-144.3000000000002
 20
172.1411685035737
 30
0.0
 11
-145.3000000000002
 21
172.1411685035737
 31
0.0
  0
LINE
  5
22C
330
1F
100
AcDbEntity
  8
0
  6
Continuous
 62
     7
100
AcDbLine
 10
-145.0500000000002
 20
152.6411685035733
 30
0.0
 11
-147.1000000000001
 21
152.6411685035735
 31
0.0
  0
LINE
  5
22D
330
1F
100
AcDbEntity
  8
0
  6
Continuous
 62
     7
100
AcDbLine
 10
-145.0500000000002
 20
169.6411685035736
 30
0.0
 11
-147.1000000000001
 21
169.6411685035736
 31
0.0
  0
LINE
  5
22E
330
1F
100
AcDbEntity
  8
0
  6
Continuous
 62
     7
100
AcDbLine
 10
-147.1000000000001
 20
169.6411685035736
 30
0.0
 11
-147.1000000000001
 21
152.6411685035735
 31
0.0
  0
LINE
  5
22F
330
1F
100
AcDbEntity
  8
0
  6
Continuous
 62
     7
100
AcDbLine
 10
-143.8500000000002
 20
152.6411685035733
 30
0.0
 11
-143.8500000000001
 21
155.1411685035736
 31
0.0
  0
LINE
  5
230
330
1F
100
AcDbEntity
  8
0
  6
Continuous
 62
     7
100
AcDbLine
 10
-107.0000000000002
 20
172.1411685035737
 30
0.0
 11
-123.3000000000002
 21
172.1411685035737
 31
0.0
  0
LINE
  5
231
330
1F
100
AcDbEntity
  8
0
  6
Continuous
 62
     7
100
AcDbLine
 10
-104.3000000000002
 20
172.1411685035737
 30
0.0
 11
-104.3000000000002
 21
175.6411685035745
 31
0.0
  0
LINE
  5
232
330
1F
100
AcDbEntity
  8
0
  6
Continuous
 62
     7
100
AcDbLine
 10
-103.0
 20
172.1411685035739
 30
0.0
 11
-103.0000000000001
 21
176.1411685035739
 31
0.0
  0
LINE
  5
233
330
1F
100
AcDbEntity
  8
0
  6
Continuous
 62
     7
100
AcDbLine
 10
-103.0000000000001
 20
169.6411685035737
 30
0.0
 11
-103.0
 21
172.1411685035739
 31
0.0
  0
LINE
  5
234
330
1F
100
AcDbEntity
  8
0
  6
Continuous
 62
     7
100
AcDbLine
 10
-104.0000000000001
 20
177.1411685035739
 30
0.0
 11
-104.8000000000002
 21
177.1411685035739
 31
0.0
  0
LINE
  5
235
330
1F
100
AcDbEntity
  8
0
  6
Continuous
 62
     7
100
AcDbLine
 10
-104.3000000000002
 20
175.6411685035745
 30
0.0
 11
-104.8000000000002
 21
176.1411685035745
 31
0.0
  0
LINE
  5
236
330
1F
100
AcDbEntity
  8
0
  6
Continuous
 62
     7
100
AcDbLine
 10
-103.0000000000001
 20
169.6411685035737
 30
0.0
 11
-105.0500000000002
 21
169.6411685035737
 31
0.0
  0
LINE
  5
237
330
1F
100
AcDbEntity
  8
0
  6
Continuous
 62
     7
100
AcDbLine
 10
-104.3000000000002
 20
172.1411685035737
 30
0.0
 11
-104.8000000000002
 21
172.1411685035737
 31
0.0
  0
LINE
  5
238
330
1F
100
AcDbEntity
  8
0
  6
Continuous
 62
     7
100
AcDbLine
 10
-103.0
 20
172.1411685035739
 30
0.0
 11
-104.3000000000002
 21
172.1411685035737
 31
0.0
  0
LINE
  5
239
330
1F
100
AcDbEntity
  8
0
  6
Continuous
 62
     7
100
AcDbLine
 10
-104.8000000000002
 20
172.1411685035737
 30
0.0
 11
-106.0000000000002
 21
172.1411685035737
 31
0.0
  0
LINE
  5
23A
330
1F
100
AcDbEntity
  8
0
  6
Continuous
 62
     7
100
AcDbLine
 10
-106.0000000000002
 20
172.1411685035737
 30
0.0
 11
-107.0000000000002
 21
172.1411685035737
 31
0.0
  0
LINE
  5
23B
330
1F
100
AcDbEntity
  8
0
  6
Continuous
 62
     7
100
AcDbLine
 10
-102.1000000000001
 20
161.1411685035737
 30
0.0
 11
-102.1627367192449
 21
161.3753051272953
 31
0.0
  0
LINE
  5
23C
330
1F
100
AcDbEntity
  8
0
  6
Continuous
 62
     7
100
AcDbLine
 10
-102.3679491924311
 20
162.1411685035737
 30
0.0
 11
-102.1627367192449
 21
161.3753051272953
 31
0.0
  0
LINE
  5
23D
330
1F
100
AcDbEntity
  8
0
  6
Continuous
 62
     7
100
AcDbLine
 10
-136.15
 20
155.6411685035736
 30
0.0
 11
-143.3500000000002
 21
155.6411685035736
 31
0.0
  0
LINE
  5
23E
330
1F
100
AcDbEntity
  8
0
  6
Continuous
 62
     7
100
AcDbLine
 10
-120.9500000000001
 20
152.6411685035733
 30
0.0
 11
-120.95
 21
155.1411685035737
 31
0.0
  0
LINE
  5
23F
330
1F
100
AcDbEntity
  8
0
  6
Continuous
 62
     7
100
AcDbLine
 10
-121.45
 20
155.6411685035737
 30
0.0
 11
-128.65
 21
155.6411685035736
 31
0.0
  0
LINE
  5
240
330
1F
100
AcDbEntity
  8
0
  6
Continuous
 62
     7
100
AcDbLine
 10
-143.5500000000002
 20
152.6411685035735
 30
0.0
 11
-135.6500000000002
 21
152.6411685035733
 31
0.0
  0
LINE
  5
241
330
1F
100
AcDbEntity
  8
0
  6
Continuous
 62
     7
100
AcDbLine
 10
-120.9500000000001
 20
152.6411685035733
 30
0.0
 11
-129.1500000000002
 21
152.6411685035733
 31
0.0
  0
LINE
  5
242
330
1F
100
AcDbEntity
  8
0
  6
Continuous
 62
     7
100
AcDbLine
 10
-106.2500000000001
 20
152.6411685035733
 30
0.0
 11
-114.4500000000001
 21
152.6411685035733
 31
0.0
  0
LINE
  5
243
330
1F
100
AcDbEntity
  8
0
  6
Continuous
 62
     7
100
AcDbLine
 10
-135.6500000000002
 20
152.6411685035733
 30
0.0
 11
-134.4500000000002
 21
152.6411685035733
 31
0.0
  0
LINE
  5
244
330
1F
100
AcDbEntity
  8
0
  6
Continuous
 62
     7
100
AcDbLine
 10
-130.3500000000002
 20
152.6411685035733
 30
0.0
 11
-134.4500000000002
 21
152.6411685035733
 31
0.0
  0
LINE
  5
245
330
1F
100
AcDbEntity
  8
0
  6
Continuous
 62
     7
100
AcDbLine
 10
-120.9500000000001
 20
152.6411685035733
 30
0.0
 11
-119.7500000000001
 21
152.6411685035733
 31
0.0
  0
LINE
  5
246
330
1F
100
AcDbEntity
  8
0
  6
Continuous
 62
     7
100
AcDbLine
 10
-130.3500000000002
 20
152.6411685035733
 30
0.0
 11
-129.1500000000002
 21
152.6411685035733
 31
0.0
  0
LINE
  5
247
330
1F
100
AcDbEntity
  8
0
  6
Continuous
 62
     7
100
AcDbLine
 10
-145.0500000000002
 20
152.6411685035733
 30
0.0
 11
-143.8500000000002
 21
152.6411685035733
 31
0.0
  0
LINE
  5
248
330
1F
100
AcDbEntity
  8
0
  6
Continuous
 62
     7
100
AcDbLine
 10
-143.8500000000002
 20
152.6411685035733
 30
0.0
 11
-143.5500000000002
 21
152.6411685035735
 31
0.0
  0
LINE
  5
249
330
1F
100
AcDbEntity
  8
0
  6
Continuous
 62
     7
100
AcDbLine
 10
-106.2500000000001
 20
152.6411685035733
 30
0.0
 11
-105.0500000000002
 21
152.6411685035733
 31
0.0
  0
LINE
  5
24A
330
1F
100
AcDbEntity
  8
0
  6
Continuous
 62
     7
100
AcDbLine
 10
-115.6500000000001
 20
152.6411685035733
 30
0.0
 11
-114.4500000000001
 21
152.6411685035733
 31
0.0
  0
LINE
  5
24B
330
1F
100
AcDbEntity
  8
0
  6
Continuous
 62
     7
100
AcDbLine
 10
-103.0000000000001
 20
152.6411685035733
 30
0.0
 11
-105.0000000000001
 21
152.6411685035735
 31
0.0
  0
LINE
  5
24C
330
1F
100
AcDbEntity
  8
0
  6
Continuous
 62
     7
100
AcDbLine
 10
-105.0000000000001
 20
152.6411685035735
 30
0.0
 11
-105.0500000000002
 21
152.6411685035733
 31
0.0
  0
LINE
  5
24D
330
1F
100
AcDbEntity
  8
0
  6
Continuous
 62
     7
100
AcDbLine
 10
-102.1000000000001
 20
152.6411685035733
 30
0.0
 11
-102.3845236523476
 21
152.6411685035733
 31
0.0
  0
LINE
  5
24E
330
1F
100
AcDbEntity
  8
0
  6
Continuous
 62
     7
100
AcDbLine
 10
-115.6500000000001
 20
152.6411685035733
 30
0.0
 11
-119.7500000000001
 21
152.6411685035733
 31
0.0
  0
LINE
  5
24F
330
1F
100
AcDbEntity
  8
0
  6
DASHED
 62
     7
100
AcDbLine
 10
-119.7500000000001
 20
155.1671336733382
 30
0.0
 11
-119.7500000000001
 21
155.4805281346492
 31
0.0
  0
LINE
  5
250
330
1F
100
AcDbEntity
  8
0
  6
DASHED
 62
     7
100
AcDbLine
 10
-119.7500000000001
 20
152.6411685035733
 30
0.0
 11
-119.7500000000001
 21
155.1671336733382
 31
0.0
  0
LINE
  5
251
330
1F
100
AcDbEntity
  8
0
  6
DASHED
 62
     7
100
AcDbLine
 10
-124.1000000000001
 20
152.6411685035733
 30
0.0
 11
-124.1000000000001
 21
142.6411685035737
 31
0.0
  0
LINE
  5
252
330
1F
100
AcDbEntity
  8
0
  6
DASHED
 62
     7
100
AcDbLine
 10
-124.7500000000001
 20
177.8654716749954
 30
0.0
 11
-124.7500000000001
 21
177.3411685035737
 31
0.0
  0
LINE
  5
253
330
1F
100
AcDbEntity
  8
0
  6
DASHED
 62
     7
100
AcDbLine
 10
-124.3000000000002
 20
177.1611685035738
 30
0.0
 11
-124.7500000000001
 21
177.3411685035737
 31
0.0
  0
LINE
  5
254
330
1F
100
AcDbEntity
  8
0
  6
DASHED
 62
     7
100
AcDbLine
 10
-124.3000000000002
 20
178.7486464024725
 30
0.0
 11
-124.7500000000001
 21
177.8654716749954
 31
0.0
  0
LINE
  5
255
330
1F
100
AcDbEntity
  8
0
  6
DASHED
 62
     7
100
AcDbLine
 10
-104.3500000000001
 20
177.3411685035737
 30
0.0
 11
-104.3500000000001
 21
177.8654716749954
 31
0.0
  0
LINE
  5
256
330
1F
100
AcDbEntity
  8
0
  6
DASHED
 62
     7
100
AcDbLine
 10
-104.3500000000001
 20
177.8654716749954
 30
0.0
 11
-104.8000000000002
 21
178.7486464024728
 31
0.0
  0
LINE
  5
257
330
1F
100
AcDbEntity
  8
0
  6
DASHED
 62
     7
100
AcDbLine
 10
-104.3500000000001
 20
177.3411685035737
 30
0.0
 11
-104.8000000000002
 21
177.1611685035737
 31
0.0
  0
LINE
  5
258
330
1F
100
AcDbEntity
  8
0
  6
DASHED
 62
     7
100
AcDbLine
 10
-119.7500000000001
 20
152.5152033338092
 30
0.0
 11
-119.7500000000001
 21
152.6411685035733
 31
0.0
  0
LINE
  5
259
330
1F
100
AcDbEntity
  8
0
  6
DASHED
 62
     7
100
AcDbLine
 10
-109.3500000000001
 20
152.5152033338092
 30
0.0
 11
-109.3500000000001
 21
152.6411685035733
 31
0.0
  0
LINE
  5
25A
330
1F
100
AcDbEntity
  8
0
  6
DASHED
 62
     7
100
AcDbLine
 10
-109.3500000000001
 20
152.5152033338092
 30
0.0
 11
-109.3500000000001
 21
152.2018088724982
 31
0.0
  0
LINE
  5
25B
330
1F
100
AcDbEntity
  8
0
  6
DASHED
 62
     7
100
AcDbLine
 10
-108.4500000000001
 20
152.2018088724982
 30
0.0
 11
-108.4500000000001
 21
152.5152033338092
 31
0.0
  0
LINE
  5
25C
330
1F
100
AcDbEntity
  8
0
  6
DASHED
 62
     7
100
AcDbLine
 10
-108.4500000000001
 20
152.5152033338092
 30
0.0
 11
-108.4500000000001
 21
152.6411685035733
 31
0.0
  0
LINE
  5
25D
330
1F
100
AcDbEntity
  8
0
  6
DASHED
 62
     7
100
AcDbLine
 10
-120.6500000000001
 20
152.5152033338092
 30
0.0
 11
-120.6500000000001
 21
152.6411685035733
 31
0.0
  0
LINE
  5
25E
330
1F
100
AcDbEntity
  8
0
  6
DASHED
 62
     7
100
AcDbLine
 10
-120.6500000000001
 20
152.5152033338092
 30
0.0
 11
-120.6500000000001
 21
152.2018088724982
 31
0.0
  0
LINE
  5
25F
330
1F
100
AcDbEntity
  8
0
  6
DASHED
 62
     7
100
AcDbLine
 10
-119.7500000000001
 20
152.2018088724982
 30
0.0
 11
-119.7500000000001
 21
152.5152033338092
 31
0.0
  0
LINE
  5
260
330
1F
100
AcDbEntity
  8
0
  6
DASHED
 62
     7
100
AcDbLine
 10
-105.0000000000001
 20
142.6411685035737
 30
0.0
 11
-124.1000000000001
 21
142.6411685035737
 31
0.0
  0
LINE
  5
261
330
1F
100
AcDbEntity
  8
0
  6
DASHED
 62
     7
100
AcDbLine
 10
-105.0000000000001
 20
142.6411685035737
 30
0.0
 11
-105.0000000000001
 21
152.6411685035735
 31
0.0
  0
LINE
  5
262
330
1F
100
AcDbEntity
  8
0
  6
DASHED
 62
     7
100
AcDbLine
 10
-145.3000000000001
 20
177.1611685035738
 30
0.0
 11
-145.7500000000002
 21
177.3411685035738
 31
0.0
  0
LINE
  5
263
330
1F
100
AcDbEntity
  8
0
  6
DASHED
 62
     7
100
AcDbLine
 10
-145.7500000000002
 20
177.8654716749954
 30
0.0
 11
-145.7500000000002
 21
177.3411685035738
 31
0.0
  0
LINE
  5
264
330
1F
100
AcDbEntity
  8
0
  6
DASHED
 62
     7
100
AcDbLine
 10
-145.3000000000002
 20
178.7486464024728
 30
0.0
 11
-145.7500000000002
 21
177.8654716749954
 31
0.0
  0
LINE
  5
265
330
1F
100
AcDbEntity
  8
0
  6
DASHED
 62
     7
100
AcDbLine
 10
-143.5500000000002
 20
142.6411685035738
 30
0.0
 11
-143.5500000000002
 21
152.6411685035735
 31
0.0
  0
LINE
  5
266
330
1F
100
AcDbEntity
  8
0
  6
DASHED
 62
     7
100
AcDbLine
 10
-145.1000000000002
 20
142.6411685035738
 30
0.0
 11
-143.5500000000002
 21
142.6411685035738
 31
0.0
  0
LINE
  5
267
330
1F
100
AcDbEntity
  8
0
  6
DASHED
 62
     7
100
AcDbLine
 10
-143.5500000000002
 20
142.6411685035738
 30
0.0
 11
-127.5500000000002
 21
142.6411685035738
 31
0.0
  0
LINE
  5
268
330
1F
100
AcDbEntity
  8
0
  6
DASHED
 62
     7
100
AcDbLine
 10
-126.0000000000002
 20
142.6411685035738
 30
0.0
 11
-126.0000000000002
 21
152.6411685035733
 31
0.0
  0
LINE
  5
269
330
1F
100
AcDbEntity
  8
0
  6
DASHED
 62
     7
100
AcDbLine
 10
-145.1000000000002
 20
152.6411685035733
 30
0.0
 11
-145.1000000000002
 21
142.6411685035738
 31
0.0
  0
LINE
  5
26A
330
1F
100
AcDbEntity
  8
0
  6
DASHED
 62
     7
100
AcDbLine
 10
-127.5500000000002
 20
142.6411685035738
 30
0.0
 11
-126.0000000000002
 21
142.6411685035738
 31
0.0
  0
LINE
  5
26B
330
1F
100
AcDbEntity
  8
0
  6
DASHED
 62
     7
100
AcDbLine
 10
-127.5500000000002
 20
152.6411685035733
 30
0.0
 11
-127.5500000000002
 21
142.6411685035738
 31
0.0
  0
LINE
  5
26C
330
1F
100
AcDbEntity
  8
0
  6
Continuous
 62
     7
100
AcDbLine
 10
-114.4500000000001
 20
74.459356746495
 30
0.0
 11
-114.4500000000001
 21
76.4593567464949
 31
0.0
  0
LINE
  5
26D
330
1F
100
AcDbEntity
  8
0
  6
Continuous
 62
     7
100
AcDbLine
 10
-114.4500000000001
 20
76.4593567464949
 30
0.0
 11
-120.9500000000001
 21
76.4593567464949
 31
0.0
  0
LINE
  5
26E
330
1F
100
AcDbEntity
  8
0
  6
Continuous
 62
     7
100
AcDbLine
 10
-120.9500000000001
 20
74.459356746495
 30
0.0
 11
-121.4500000000001
 21
74.459356746495
 31
0.0
  0
LINE
  5
26F
330
1F
100
AcDbEntity
  8
0
  6
Continuous
 62
     7
100
AcDbLine
 10
-114.4500000000001
 20
74.459356746495
 30
0.0
 11
-113.9500000000001
 21
74.459356746495
 31
0.0
  0
LINE
  5
270
330
1F
100
AcDbEntity
  8
0
  6
Continuous
 62
     7
100
AcDbLine
 10
-136.1500000000001
 20
74.459356746495
 30
0.0
 11
-143.3500000000001
 21
74.459356746495
 31
0.0
  0
LINE
  5
271
330
1F
100
AcDbEntity
  8
0
  6
Continuous
 62
     7
100
AcDbLine
 10
-143.8500000000001
 20
74.459356746495
 30
0.0
 11
-143.8500000000001
 21
76.4593567464949
 31
0.0
  0
LINE
  5
272
330
1F
100
AcDbEntity
  8
0
  6
Continuous
 62
     7
100
AcDbLine
 10
-120.9500000000001
 20
76.4593567464949
 30
0.0
 11
-120.9500000000001
 21
74.459356746495
 31
0.0
  0
LINE
  5
273
330
1F
100
AcDbEntity
  8
0
  6
Continuous
 62
     7
100
AcDbLine
 10
-135.6500000000001
 20
76.4593567464949
 30
0.0
 11
-135.6500000000001
 21
74.459356746495
 31
0.0
  0
LINE
  5
274
330
1F
100
AcDbEntity
  8
0
  6
Continuous
 62
     7
100
AcDbLine
 10
-129.1500000000001
 20
74.459356746495
 30
0.0
 11
-129.1500000000001
 21
76.4593567464949
 31
0.0
  0
LINE
  5
275
330
1F
100
AcDbEntity
  8
0
  6
Continuous
 62
     7
100
AcDbLine
 10
-123.3000000000001
 20
78.2593567464946
 30
0.0
 11
-107.0000000000001
 21
78.2593567464946
 31
0.0
  0
LINE
  5
276
330
1F
100
AcDbEntity
  8
0
  6
Continuous
 62
     7
100
AcDbLine
 10
-113.9500000000001
 20
74.459356746495
 30
0.0
 11
-106.7500000000001
 21
74.459356746495
 31
0.0
  0
LINE
  5
277
330
1F
100
AcDbEntity
  8
0
  6
Continuous
 62
     7
100
AcDbLine
 10
-106.2500000000001
 20
76.4593567464949
 30
0.0
 11
-114.4500000000001
 21
76.4593567464949
 31
0.0
  0
LINE
  5
278
330
1F
100
AcDbEntity
  8
0
  6
Continuous
 62
     7
100
AcDbLine
 10
-131.2500000000001
 20
78.7593567464946
 30
0.0
 11
-131.2500000000001
 21
78.2593567464946
 31
0.0
  0
LINE
  5
279
330
1F
100
AcDbEntity
  8
0
  6
Continuous
 62
     7
100
AcDbLine
 10
-135.9500000000001
 20
78.7593567464946
 30
0.0
 11
-135.9500000000001
 21
78.2593567464946
 31
0.0
  0
LINE
  5
27A
330
1F
100
AcDbEntity
  8
0
  6
Continuous
 62
     7
100
AcDbLine
 10
-131.2500000000001
 20
78.2593567464946
 30
0.0
 11
-127.6000000000001
 21
78.2593567464946
 31
0.0
  0
LINE
  5
27B
330
1F
100
AcDbEntity
  8
0
  6
Continuous
 62
     7
100
AcDbLine
 10
-140.2500000000001
 20
78.7593567464946
 30
0.0
 11
-140.2500000000001
 21
78.2593567464946
 31
0.0
  0
LINE
  5
27C
330
1F
100
AcDbEntity
  8
0
  6
Continuous
 62
     7
100
AcDbLine
 10
-140.2500000000001
 20
78.2593567464946
 30
0.0
 11
-135.9500000000001
 21
78.2593567464946
 31
0.0
  0
LINE
  5
27D
330
1F
100
AcDbEntity
  8
0
  6
Continuous
 62
     7
100
AcDbLine
 10
-131.2500000000001
 20
78.2593567464946
 30
0.0
 11
-135.9500000000001
 21
78.2593567464946
 31
0.0
  0
LINE
  5
27E
330
1F
100
AcDbEntity
  8
0
  6
Continuous
 62
     7
100
AcDbLine
 10
-120.9500000000001
 20
76.4593567464949
 30
0.0
 11
-129.1500000000001
 21
76.4593567464949
 31
0.0
  0
LINE
  5
27F
330
1F
100
AcDbEntity
  8
0
  6
Continuous
 62
     7
100
AcDbLine
 10
-135.6500000000001
 20
76.4593567464949
 30
0.0
 11
-143.8500000000001
 21
76.4593567464949
 31
0.0
  0
LINE
  5
280
330
1F
100
AcDbEntity
  8
0
  6
Continuous
 62
     7
100
AcDbLine
 10
-129.1500000000001
 20
76.4593567464949
 30
0.0
 11
-135.6500000000001
 21
76.4593567464949
 31
0.0
  0
LINE
  5
281
330
1F
100
AcDbEntity
  8
0
  6
Continuous
 62
     7
100
AcDbLine
 10
-124.3000000000002
 20
84.15935674649509
 30
0.0
 11
-123.8000000000002
 21
84.15935674649509
 31
0.0
  0
LINE
  5
282
330
1F
100
AcDbEntity
  8
0
  6
Continuous
 62
     7
100
AcDbLine
 10
-122.55
 20
83.9593567464949
 30
0.0
 11
-122.5500000000002
 21
84.15935674649509
 31
0.0
  0
LINE
  5
283
330
1F
100
AcDbEntity
  8
0
  6
Continuous
 62
     7
100
AcDbLine
 10
-122.5500000000002
 20
82.35935674649542
 30
0.0
 11
-122.55
 21
83.9593567464949
 31
0.0
  0
LINE
  5
284
330
1F
100
AcDbEntity
  8
0
  6
Continuous
 62
     7
100
AcDbLine
 10
-122.5500000000002
 20
84.15935674649509
 30
0.0
 11
-123.8000000000002
 21
84.15935674649509
 31
0.0
  0
LINE
  5
285
330
1F
100
AcDbEntity
  8
0
  6
Continuous
 62
     7
100
AcDbLine
 10
-143.8500000000001
 20
74.459356746495
 30
0.0
 11
-143.3500000000001
 21
74.459356746495
 31
0.0
  0
LINE
  5
286
330
1F
100
AcDbEntity
  8
0
  6
Continuous
 62
     7
100
AcDbLine
 10
-135.6500000000001
 20
74.459356746495
 30
0.0
 11
-136.1500000000001
 21
74.459356746495
 31
0.0
  0
LINE
  5
287
330
1F
100
AcDbEntity
  8
0
  6
Continuous
 62
     7
100
AcDbLine
 10
-129.1500000000001
 20
74.459356746495
 30
0.0
 11
-128.6500000000001
 21
74.459356746495
 31
0.0
  0
LINE
  5
288
330
1F
100
AcDbEntity
  8
0
  6
Continuous
 62
     7
100
AcDbLine
 10
-124.3000000000002
 20
82.35935674649491
 30
0.0
 11
-124.1000000000001
 21
82.35935674649491
 31
0.0
  0
LINE
  5
289
330
1F
100
AcDbEntity
  8
0
  6
Continuous
 62
     7
100
AcDbLine
 10
-124.1000000000001
 20
82.35935674649491
 30
0.0
 11
-123.8000000000002
 21
82.35935674649542
 31
0.0
  0
LINE
  5
28A
330
1F
100
AcDbEntity
  8
0
  6
Continuous
 62
     7
100
AcDbLine
 10
-123.8000000000002
 20
82.35935674649542
 30
0.0
 11
-123.3500000000001
 21
82.35935674649491
 31
0.0
  0
LINE
  5
28B
330
1F
100
AcDbEntity
  8
0
  6
Continuous
 62
     7
100
AcDbLine
 10
-123.3500000000001
 20
82.35935674649491
 30
0.0
 11
-122.5500000000002
 21
82.35935674649542
 31
0.0
  0
LINE
  5
28C
330
1F
100
AcDbEntity
  8
0
  6
Continuous
 62
     7
100
AcDbLine
 10
-121.4500000000001
 20
74.459356746495
 30
0.0
 11
-128.6500000000001
 21
74.459356746495
 31
0.0
  0
LINE
  5
28D
330
1F
100
AcDbEntity
  8
0
  6
Continuous
 62
     7
100
AcDbLine
 10
-125.1000000000002
 20
82.50935674649489
 30
0.0
 11
-124.8000000000002
 21
82.50935674649489
 31
0.0
  0
LINE
  5
28E
330
1F
100
AcDbEntity
  8
0
  6
Continuous
 62
     7
100
AcDbLine
 10
-124.8000000000002
 20
82.3593567464952
 30
0.0
 11
-124.8000000000002
 21
82.50935674649489
 31
0.0
  0
LINE
  5
28F
330
1F
100
AcDbEntity
  8
0
  6
Continuous
 62
     7
100
AcDbLine
 10
-124.7500000000001
 20
82.35935674649491
 30
0.0
 11
-124.8000000000002
 21
82.3593567464952
 31
0.0
  0
LINE
  5
290
330
1F
100
AcDbEntity
  8
0
  6
Continuous
 62
     7
100
AcDbLine
 10
-140.2500000000001
 20
78.2593567464946
 30
0.0
 11
-144.3
 21
78.2593567464946
 31
0.0
  0
LINE
  5
291
330
1F
100
AcDbEntity
  8
0
  6
Continuous
 62
     7
100
AcDbLine
 10
-107.2500000000001
 20
106.4593567464949
 30
0.0
 11
-113.4500000000001
 21
106.4593567464949
 31
0.0
  0
LINE
  5
292
330
1F
100
AcDbEntity
  8
0
  6
Continuous
 62
     7
100
AcDbLine
 10
-121.9500000000001
 20
106.4593567464948
 30
0.0
 11
-128.1500000000001
 21
106.4593567464948
 31
0.0
  0
LINE
  5
293
330
1F
100
AcDbEntity
  8
0
  6
Continuous
 62
     7
100
AcDbLine
 10
-113.4500000000001
 20
106.4593567464949
 30
0.0
 11
-121.9500000000001
 21
106.4593567464948
 31
0.0
  0
LINE
  5
294
330
1F
100
AcDbEntity
  8
0
  6
Continuous
 62
     7
100
AcDbLine
 10
-136.6500000000001
 20
106.4593567464948
 30
0.0
 11
-142.8500000000001
 21
106.4593567464948
 31
0.0
  0
LINE
  5
295
330
1F
100
AcDbEntity
  8
0
  6
Continuous
 62
     7
100
AcDbLine
 10
-142.8500000000001
 20
106.4593567464948
 30
0.0
 11
-147.1000000000001
 21
106.4593567464947
 31
0.0
  0
LINE
  5
296
330
1F
100
AcDbEntity
  8
0
  6
Continuous
 62
     7
100
AcDbLine
 10
-107.2500000000001
 20
108.4593567464949
 30
0.0
 11
-107.2500000000001
 21
106.4593567464949
 31
0.0
  0
LINE
  5
297
330
1F
100
AcDbEntity
  8
0
  6
Continuous
 62
     7
100
AcDbLine
 10
-107.2500000000001
 20
108.4593567464949
 30
0.0
 11
-107.7500000000001
 21
108.4593567464949
 31
0.0
  0
LINE
  5
298
330
1F
100
AcDbEntity
  8
0
  6
Continuous
 62
     7
100
AcDbLine
 10
-142.8500000000001
 20
108.4593567464948
 30
0.0
 11
-142.3500000000001
 21
108.4593567464948
 31
0.0
  0
LINE
  5
299
330
1F
100
AcDbEntity
  8
0
  6
Continuous
 62
     7
100
AcDbLine
 10
-113.4500000000001
 20
106.4593567464949
 30
0.0
 11
-113.4500000000001
 21
108.4593567464949
 31
0.0
  0
LINE
  5
29A
330
1F
100
AcDbEntity
  8
0
  6
Continuous
 62
     7
100
AcDbLine
 10
-113.4500000000001
 20
108.4593567464949
 30
0.0
 11
-112.9500000000001
 21
108.4593567464949
 31
0.0
  0
LINE
  5
29B
330
1F
100
AcDbEntity
  8
0
  6
Continuous
 62
     7
100
AcDbLine
 10
-121.9500000000001
 20
108.4593567464949
 30
0.0
 11
-122.4500000000001
 21
108.4593567464948
 31
0.0
  0
LINE
  5
29C
330
1F
100
AcDbEntity
  8
0
  6
Continuous
 62
     7
100
AcDbLine
 10
-121.9500000000001
 20
108.4593567464949
 30
0.0
 11
-121.9500000000001
 21
106.4593567464948
 31
0.0
  0
LINE
  5
29D
330
1F
100
AcDbEntity
  8
0
  6
Continuous
 62
     7
100
AcDbLine
 10
-128.15
 20
108.4593567464949
 30
0.0
 11
-127.65
 21
108.4593567464949
 31
0.0
  0
LINE
  5
29E
330
1F
100
AcDbEntity
  8
0
  6
Continuous
 62
     7
100
AcDbLine
 10
-136.6500000000001
 20
108.4593567464948
 30
0.0
 11
-137.1500000000001
 21
108.4593567464948
 31
0.0
  0
LINE
  5
29F
330
1F
100
AcDbEntity
  8
0
  6
Continuous
 62
     7
100
AcDbLine
 10
-136.6500000000001
 20
108.4593567464948
 30
0.0
 11
-136.6500000000001
 21
106.4593567464948
 31
0.0
  0
LINE
  5
2A0
330
1F
100
AcDbEntity
  8
0
  6
Continuous
 62
     7
100
AcDbLine
 10
-122.4500000000001
 20
108.4593567464948
 30
0.0
 11
-127.65
 21
108.4593567464949
 31
0.0
  0
LINE
  5
2A1
330
1F
100
AcDbEntity
  8
0
  6
Continuous
 62
     7
100
AcDbLine
 10
-112.9500000000001
 20
108.4593567464949
 30
0.0
 11
-107.7500000000001
 21
108.4593567464949
 31
0.0
  0
LINE
  5
2A2
330
1F
100
AcDbEntity
  8
0
  6
Continuous
 62
     7
100
AcDbLine
 10
-128.1500000000001
 20
106.4593567464948
 30
0.0
 11
-128.15
 21
108.4593567464949
 31
0.0
  0
LINE
  5
2A3
330
1F
100
AcDbEntity
  8
0
  6
Continuous
 62
     7
100
AcDbLine
 10
-142.8500000000001
 20
106.4593567464948
 30
0.0
 11
-142.8500000000001
 21
108.4593567464948
 31
0.0
  0
LINE
  5
2A4
330
1F
100
AcDbEntity
  8
0
  6
Continuous
 62
     7
100
AcDbLine
 10
-137.1500000000001
 20
108.4593567464948
 30
0.0
 11
-142.3500000000001
 21
108.4593567464948
 31
0.0
  0
LINE
  5
2A5
330
1F
100
AcDbEntity
  8
0
  6
Continuous
 62
     7
100
AcDbLine
 10
-128.1500000000001
 20
106.4593567464948
 30
0.0
 11
-136.6500000000001
 21
106.4593567464948
 31
0.0
  0
LINE
  5
2A6
330
1F
100
AcDbEntity
  8
0
  6
Continuous
 62
     7
100
AcDbLine
 10
-103.0
 20
106.4593567464947
 30
0.0
 11
-107.2500000000001
 21
106.4593567464949
 31
0.0
  0
LINE
  5
2A7
330
1F
100
AcDbEntity
  8
0
  6
Continuous
 62
     7
100
AcDbLine
 10
-102.8432879227876
 20
101.264097545071
 30
0.0
 11
-102.3679491924312
 21
101.1587174856035
 31
0.0
  0
LINE
  5
2A8
330
1F
100
AcDbEntity
  8
0
  6
Continuous
 62
     7
100
AcDbLine
 10
-102.367949192431
 20
81.7599960073866
 30
0.0
 11
-102.8432879227875
 21
81.6546159479191
 31
0.0
  0
LINE
  5
2A9
330
1F
100
AcDbEntity
  8
0
  6
Continuous
 62
     7
100
AcDbLine
 10
-103.0000000000001
 20
102.803616969579
 30
0.0
 11
-103.0
 21
106.4593567464947
 31
0.0
  0
LINE
  5
2AA
330
1F
100
AcDbEntity
  8
0
  6
Continuous
 62
     7
100
AcDbLine
 10
-102.3679491924312
 20
101.7599960073865
 30
0.0
 11
-102.8432879227877
 21
101.654615947919
 31
0.0
  0
LINE
  5
2AB
330
1F
100
AcDbEntity
  8
0
  6
Continuous
 62
     7
100
AcDbLine
 10
-102.7154763476518
 20
80.29635808081841
 30
0.0
 11
-102.3845236523481
 21
80.14203230451122
 31
0.0
  0
LINE
  5
2AC
330
1F
100
AcDbEntity
  8
0
  6
Continuous
 62
     7
100
AcDbLine
 10
-102.715476347652
 20
100.2963580808184
 30
0.0
 11
-102.3845236523482
 21
100.1420323045112
 31
0.0
  0
LINE
  5
2AD
330
1F
100
AcDbEntity
  8
0
  6
Continuous
 62
     7
100
AcDbLine
 10
-102.3845236523482
 20
102.7766811884788
 30
0.0
 11
-102.715476347652
 21
102.6223554121717
 31
0.0
  0
LINE
  5
2AE
330
1F
100
AcDbEntity
  8
0
  6
Continuous
 62
     7
100
AcDbLine
 10
-102.3845236523482
 20
82.7766811884789
 30
0.0
 11
-102.7154763476518
 21
82.62235541217174
 31
0.0
  0
LINE
  5
2AF
330
1F
100
AcDbEntity
  8
0
  6
Continuous
 62
     7
100
AcDbLine
 10
-102.8432879227877
 20
81.264097545071
 30
0.0
 11
-102.367949192431
 21
81.1587174856036
 31
0.0
  0
LINE
  5
2B0
330
1F
100
AcDbEntity
  8
0
  6
Continuous
 62
     7
100
AcDbLine
 10
-107.5500000000002
 20
84.15935674649492
 30
0.0
 11
-107.5500000000002
 21
95.75935674649489
 31
0.0
  0
LINE
  5
2B1
330
1F
100
AcDbEntity
  8
0
  6
Continuous
 62
     7
100
AcDbLine
 10
-106.2500000000001
 20
76.4593567464949
 30
0.0
 11
-106.2500000000001
 21
74.459356746495
 31
0.0
  0
LINE
  5
2B2
330
1F
100
AcDbEntity
  8
0
  6
Continuous
 62
     7
100
AcDbLine
 10
-106.2500000000001
 20
74.459356746495
 30
0.0
 11
-106.7500000000001
 21
74.459356746495
 31
0.0
  0
LINE
  5
2B3
330
1F
100
AcDbEntity
  8
0
  6
Continuous
 62
     7
100
AcDbLine
 10
-104.0000000000001
 20
82.50935674649489
 30
0.0
 11
-104.0000000000001
 21
84.0093567464952
 31
0.0
  0
LINE
  5
2B4
330
1F
100
AcDbEntity
  8
0
  6
Continuous
 62
     7
100
AcDbLine
 10
-106.0000000000001
 20
80.4593567464949
 30
0.0
 11
-106.0000000000001
 21
79.2593567464946
 31
0.0
  0
LINE
  5
2B5
330
1F
100
AcDbEntity
  8
0
  6
Continuous
 62
     7
100
AcDbLine
 10
-104.3000000000001
 20
82.3593567464952
 30
0.0
 11
-104.3000000000001
 21
82.50935674649489
 31
0.0
  0
LINE
  5
2B6
330
1F
100
AcDbEntity
  8
0
  6
Continuous
 62
     7
100
AcDbLine
 10
-104.3000000000001
 20
82.3593567464952
 30
0.0
 11
-104.3500000000001
 21
82.35935674649491
 31
0.0
  0
LINE
  5
2B7
330
1F
100
AcDbEntity
  8
0
  6
Continuous
 62
     7
100
AcDbLine
 10
-104.3500000000001
 20
82.35935674649491
 30
0.0
 11
-104.8000000000001
 21
82.3593567464952
 31
0.0
  0
LINE
  5
2B8
330
1F
100
AcDbEntity
  8
0
  6
Continuous
 62
     7
100
AcDbLine
 10
-103.0000000000001
 20
80.11509652341098
 30
0.0
 11
-103.0000000000001
 21
81.45935674649499
 31
0.0
  0
LINE
  5
2B9
330
1F
100
AcDbEntity
  8
0
  6
Continuous
 62
     7
100
AcDbLine
 10
-103.0
 20
76.4593567464947
 30
0.0
 11
-103.0000000000001
 21
80.11509652341098
 31
0.0
  0
LINE
  5
2BA
330
1F
100
AcDbEntity
  8
0
  6
Continuous
 62
     7
100
AcDbLine
 10
-106.5500000000001
 20
83.9593567464949
 30
0.0
 11
-106.5500000000002
 21
82.35935674649542
 31
0.0
  0
LINE
  5
2BB
330
1F
100
AcDbEntity
  8
0
  6
Continuous
 62
     7
100
AcDbLine
 10
-105.0000000000001
 20
82.35935674649491
 30
0.0
 11
-104.8000000000001
 21
82.3593567464952
 31
0.0
  0
LINE
  5
2BC
330
1F
100
AcDbEntity
  8
0
  6
Continuous
 62
     7
100
AcDbLine
 10
-104.3000000000001
 20
82.50935674649489
 30
0.0
 11
-104.3500000000001
 21
82.50935674649489
 31
0.0
  0
LINE
  5
2BD
330
1F
100
AcDbEntity
  8
0
  6
Continuous
 62
     7
100
AcDbLine
 10
-104.0000000000001
 20
82.50935674649489
 30
0.0
 11
-104.3000000000001
 21
82.50935674649489
 31
0.0
  0
LINE
  5
2BE
330
1F
100
AcDbEntity
  8
0
  6
Continuous
 62
     7
100
AcDbLine
 10
-104.0000000000001
 20
82.50935674649489
 30
0.0
 11
-103.0000000000001
 21
82.50935674649489
 31
0.0
  0
LINE
  5
2BF
330
1F
100
AcDbEntity
  8
0
  6
Continuous
 62
     7
100
AcDbLine
 10
-103.0
 20
76.4593567464947
 30
0.0
 11
-106.2500000000001
 21
76.4593567464949
 31
0.0
  0
LINE
  5
2C0
330
1F
100
AcDbEntity
  8
0
  6
Continuous
 62
     7
100
AcDbLine
 10
-104.8000000000001
 20
102.1593567464949
 30
0.0
 11
-104.8000000000002
 21
99.10935674649497
 31
0.0
  0
LINE
  5
2C1
330
1F
100
AcDbEntity
  8
0
  6
Continuous
 62
     7
100
AcDbLine
 10
-105.3000000000002
 20
99.10935674649497
 30
0.0
 11
-104.8000000000002
 21
99.10935674649497
 31
0.0
  0
LINE
  5
2C2
330
1F
100
AcDbEntity
  8
0
  6
Continuous
 62
     7
100
AcDbLine
 10
-104.8000000000002
 20
83.9593567464949
 30
0.0
 11
-104.8000000000002
 21
84.0093567464952
 31
0.0
  0
LINE
  5
2C3
330
1F
100
AcDbEntity
  8
0
  6
Continuous
 62
     7
100
AcDbLine
 10
-104.8000000000001
 20
84.1593567464952
 30
0.0
 11
-104.8000000000002
 21
99.10935674649497
 31
0.0
  0
LINE
  5
2C4
330
1F
100
AcDbEntity
  8
0
  6
Continuous
 62
     7
100
AcDbLine
 10
-104.3000000000001
 20
84.0093567464952
 30
0.0
 11
-104.3000000000001
 21
84.1593567464952
 31
0.0
  0
LINE
  5
2C5
330
1F
100
AcDbEntity
  8
0
  6
Continuous
 62
     7
100
AcDbLine
 10
-104.0000000000001
 20
84.0093567464952
 30
0.0
 11
-104.3000000000001
 21
84.0093567464952
 31
0.0
  0
LINE
  5
2C6
330
1F
100
AcDbEntity
  8
0
  6
Continuous
 62
     7
100
AcDbLine
 10
-104.3000000000001
 20
84.0093567464952
 30
0.0
 11
-104.8000000000002
 21
84.0093567464952
 31
0.0
  0
LINE
  5
2C7
330
1F
100
AcDbEntity
  8
0
  6
Continuous
 62
     7
100
AcDbLine
 10
-104.3000000000001
 20
84.1593567464952
 30
0.0
 11
-104.8000000000001
 21
84.1593567464952
 31
0.0
  0
LINE
  5
2C8
330
1F
100
AcDbEntity
  8
0
  6
Continuous
 62
     7
100
AcDbLine
 10
-104.0000000000001
 20
84.0093567464952
 30
0.0
 11
-103.0000000000001
 21
84.0093567464952
 31
0.0
  0
LINE
  5
2C9
330
1F
100
AcDbEntity
  8
0
  6
Continuous
 62
     7
100
AcDbLine
 10
-105.3000000000001
 20
84.159356746495
 30
0.0
 11
-104.8000000000001
 21
84.1593567464952
 31
0.0
  0
LINE
  5
2CA
330
1F
100
AcDbEntity
  8
0
  6
Continuous
 62
     7
100
AcDbLine
 10
-103.0000000000001
 20
82.50935674649489
 30
0.0
 11
-103.0
 21
82.80361696957883
 31
0.0
  0
LINE
  5
2CB
330
1F
100
AcDbEntity
  8
0
  6
Continuous
 62
     7
100
AcDbLine
 10
-103.0000000000001
 20
81.45935674649499
 30
0.0
 11
-103.0000000000001
 21
82.50935674649489
 31
0.0
  0
LINE
  5
2CC
330
1F
100
AcDbEntity
  8
0
  6
Continuous
 62
     7
100
AcDbLine
 10
-103.0
 20
82.80361696957883
 30
0.0
 11
-103.0000000000001
 21
84.0093567464952
 31
0.0
  0
LINE
  5
2CD
330
1F
100
AcDbEntity
  8
0
  6
Continuous
 62
     7
100
AcDbLine
 10
-103.0000000000001
 20
100.115096523411
 30
0.0
 11
-103.0000000000001
 21
101.459356746495
 31
0.0
  0
LINE
  5
2CE
330
1F
100
AcDbEntity
  8
0
  6
Continuous
 62
     7
100
AcDbLine
 10
-103.0000000000001
 20
84.0093567464952
 30
0.0
 11
-103.0000000000001
 21
100.115096523411
 31
0.0
  0
LINE
  5
2CF
330
1F
100
AcDbEntity
  8
0
  6
Continuous
 62
     7
100
AcDbLine
 10
-103.0000000000001
 20
101.459356746495
 30
0.0
 11
-103.0000000000001
 21
102.803616969579
 31
0.0
  0
LINE
  5
2D0
330
1F
100
AcDbEntity
  8
0
  6
Continuous
 62
     7
100
AcDbLine
 10
-104.8000000000002
 20
81.4593567464949
 30
0.0
 11
-104.8000000000001
 21
82.3593567464952
 31
0.0
  0
LINE
  5
2D1
330
1F
100
AcDbEntity
  8
0
  6
Continuous
 62
     7
100
AcDbLine
 10
-105.3000000000002
 20
80.9593567464949
 30
0.0
 11
-105.5000000000001
 21
80.9593567464949
 31
0.0
  0
LINE
  5
2D2
330
1F
100
AcDbEntity
  8
0
  6
Continuous
 62
     7
100
AcDbLine
 10
-106.5500000000002
 20
84.159356746495
 30
0.0
 11
-106.5500000000001
 21
83.9593567464949
 31
0.0
  0
LINE
  5
2D3
330
1F
100
AcDbEntity
  8
0
  6
Continuous
 62
     7
100
AcDbLine
 10
-105.7500000000001
 20
82.35935674649491
 30
0.0
 11
-105.3000000000002
 21
82.35935674649542
 31
0.0
  0
LINE
  5
2D4
330
1F
100
AcDbEntity
  8
0
  6
Continuous
 62
     7
100
AcDbLine
 10
-105.3000000000002
 20
82.35935674649542
 30
0.0
 11
-105.0000000000001
 21
82.35935674649491
 31
0.0
  0
LINE
  5
2D5
330
1F
100
AcDbEntity
  8
0
  6
Continuous
 62
     7
100
AcDbLine
 10
-106.5500000000002
 20
82.35935674649542
 30
0.0
 11
-105.7500000000001
 21
82.35935674649491
 31
0.0
  0
LINE
  5
2D6
330
1F
100
AcDbEntity
  8
0
  6
Continuous
 62
     7
100
AcDbLine
 10
-102.1
 20
80.32329386191836
 30
0.0
 11
-102.1
 21
80.93879760944756
 31
0.0
  0
LINE
  5
2D7
330
1F
100
AcDbEntity
  8
0
  6
Continuous
 62
     7
100
AcDbLine
 10
-102.1000000000001
 20
101.9799158835423
 30
0.0
 11
-102.1000000000001
 21
102.5954196310715
 31
0.0
  0
LINE
  5
2D8
330
1F
100
AcDbEntity
  8
0
  6
Continuous
 62
     7
100
AcDbLine
 10
-102.1000000000001
 20
100.3232938619185
 30
0.0
 11
-102.1000000000001
 21
100.9387976094477
 31
0.0
  0
LINE
  5
2D9
330
1F
100
AcDbEntity
  8
0
  6
Continuous
 62
     7
100
AcDbLine
 10
-102.1
 20
81.97991588354213
 30
0.0
 11
-102.1
 21
82.59541963107134
 31
0.0
  0
LINE
  5
2DA
330
1F
100
AcDbEntity
  8
0
  6
Continuous
 62
     7
100
AcDbLine
 10
-102.3679491924312
 20
101.7599960073865
 30
0.0
 11
-102.2567120772125
 21
101.7846566821183
 31
0.0
  0
LINE
  5
2DB
330
1F
100
AcDbEntity
  8
0
  6
Continuous
 62
     7
100
AcDbLine
 10
-102.2567120772125
 20
101.1340568108717
 30
0.0
 11
-102.3679491924312
 21
101.1587174856035
 31
0.0
  0
LINE
  5
2DC
330
1F
100
AcDbEntity
  8
0
  6
Continuous
 62
     7
100
AcDbLine
 10
-102.2567120772123
 20
81.13405681087178
 30
0.0
 11
-102.367949192431
 21
81.1587174856036
 31
0.0
  0
LINE
  5
2DD
330
1F
100
AcDbEntity
  8
0
  6
Continuous
 62
     7
100
AcDbLine
 10
-102.367949192431
 20
81.7599960073866
 30
0.0
 11
-102.2567120772123
 21
81.78465668211837
 31
0.0
  0
LINE
  5
2DE
330
1F
100
AcDbEntity
  8
0
  6
Continuous
 62
     7
100
AcDbLine
 10
-125.5000000000001
 20
98.00935674649463
 30
0.0
 11
-123.5000000000001
 21
98.00935674649463
 31
0.0
  0
LINE
  5
2DF
330
1F
100
AcDbEntity
  8
0
  6
Continuous
 62
     7
100
AcDbLine
 10
-123.2000000000001
 20
98.30935674649461
 30
0.0
 11
-123.5000000000001
 21
98.00935674649463
 31
0.0
  0
LINE
  5
2E0
330
1F
100
AcDbEntity
  8
0
  6
Continuous
 62
     7
100
AcDbLine
 10
-123.2000000000001
 20
98.30935674649461
 30
0.0
 11
-123.2000000000001
 21
100.7093567464947
 31
0.0
  0
LINE
  5
2E1
330
1F
100
AcDbEntity
  8
0
  6
Continuous
 62
     7
100
AcDbLine
 10
-143.5500000000001
 20
98.75935674649449
 30
0.0
 11
-143.5500000000001
 21
98.95935674649493
 31
0.0
  0
LINE
  5
2E2
330
1F
100
AcDbEntity
  8
0
  6
Continuous
 62
     7
100
AcDbLine
 10
-143.5500000000001
 20
98.95935674649493
 30
0.0
 11
-143.5500000000001
 21
100.5593567464945
 31
0.0
  0
LINE
  5
2E3
330
1F
100
AcDbEntity
  8
0
  6
Continuous
 62
     7
100
AcDbLine
 10
-127.5500000000001
 20
98.95935674649493
 30
0.0
 11
-127.5500000000001
 21
98.75935674649438
 31
0.0
  0
LINE
  5
2E4
330
1F
100
AcDbEntity
  8
0
  6
Continuous
 62
     7
100
AcDbLine
 10
-126.8000000000001
 20
104.6593567464949
 30
0.0
 11
-144.3000000000001
 21
104.6593567464949
 31
0.0
  0
LINE
  5
2E5
330
1F
100
AcDbEntity
  8
0
  6
Continuous
 62
     7
100
AcDbLine
 10
-118.8500000000001
 20
104.6593567464949
 30
0.0
 11
-122.5000000000001
 21
104.6593567464949
 31
0.0
  0
LINE
  5
2E6
330
1F
100
AcDbEntity
  8
0
  6
Continuous
 62
     7
100
AcDbLine
 10
-146.1000000000001
 20
100.4093567464947
 30
0.0
 11
-147.1000000000001
 21
100.4093567464947
 31
0.0
  0
LINE
  5
2E7
330
1F
100
AcDbEntity
  8
0
  6
Continuous
 62
     7
100
AcDbLine
 10
-147.1000000000001
 20
100.4093567464947
 30
0.0
 11
-147.1000000000001
 21
98.90935674649464
 31
0.0
  0
LINE
  5
2E8
330
1F
100
AcDbEntity
  8
0
  6
Continuous
 62
     7
100
AcDbLine
 10
-147.1000000000001
 20
100.4093567464947
 30
0.0
 11
-147.1000000000001
 21
106.4593567464947
 31
0.0
  0
LINE
  5
2E9
330
1F
100
AcDbEntity
  8
0
  6
Continuous
 62
     7
100
AcDbLine
 10
-146.1000000000001
 20
100.4093567464947
 30
0.0
 11
-146.1000000000001
 21
98.90935674649467
 31
0.0
  0
LINE
  5
2EA
330
1F
100
AcDbEntity
  8
0
  6
Continuous
 62
     7
100
AcDbLine
 10
-145.7500000000001
 20
100.559356746495
 30
0.0
 11
-145.8000000000001
 21
100.5593567464946
 31
0.0
  0
LINE
  5
2EB
330
1F
100
AcDbEntity
  8
0
  6
Continuous
 62
     7
100
AcDbLine
 10
-145.8000000000001
 20
98.90935674649464
 30
0.0
 11
-146.1000000000001
 21
98.90935674649467
 31
0.0
  0
LINE
  5
2EC
330
1F
100
AcDbEntity
  8
0
  6
Continuous
 62
     7
100
AcDbLine
 10
-145.8000000000001
 20
100.4093567464947
 30
0.0
 11
-146.1000000000001
 21
100.4093567464947
 31
0.0
  0
LINE
  5
2ED
330
1F
100
AcDbEntity
  8
0
  6
Continuous
 62
     7
100
AcDbLine
 10
-145.8000000000001
 20
98.90935674649464
 30
0.0
 11
-145.8000000000001
 21
98.75935674649463
 31
0.0
  0
LINE
  5
2EE
330
1F
100
AcDbEntity
  8
0
  6
Continuous
 62
     7
100
AcDbLine
 10
-145.7500000000001
 20
100.4093567464947
 30
0.0
 11
-145.8000000000001
 21
100.4093567464947
 31
0.0
  0
LINE
  5
2EF
330
1F
100
AcDbEntity
  8
0
  6
Continuous
 62
     7
100
AcDbLine
 10
-145.3000000000001
 20
98.90935674649467
 30
0.0
 11
-145.8000000000001
 21
98.90935674649464
 31
0.0
  0
LINE
  5
2F0
330
1F
100
AcDbEntity
  8
0
  6
Continuous
 62
     7
100
AcDbLine
 10
-145.1000000000001
 20
100.559356746495
 30
0.0
 11
-145.3
 21
100.5593567464948
 31
0.0
  0
LINE
  5
2F1
330
1F
100
AcDbEntity
  8
0
  6
Continuous
 62
     7
100
AcDbLine
 10
-145.3000000000001
 20
98.90935674649467
 30
0.0
 11
-145.3000000000001
 21
98.95935674649496
 31
0.0
  0
LINE
  5
2F2
330
1F
100
AcDbEntity
  8
0
  6
Continuous
 62
     7
100
AcDbLine
 10
-145.3
 20
103.6593567464949
 30
0.0
 11
-145.3
 21
100.5593567464948
 31
0.0
  0
LINE
  5
2F3
330
1F
100
AcDbEntity
  8
0
  6
Continuous
 62
     7
100
AcDbLine
 10
-123.7000000000001
 20
98.90935674649452
 30
0.0
 11
-124.0000000000001
 21
98.90935674649452
 31
0.0
  0
LINE
  5
2F4
330
1F
100
AcDbEntity
  8
0
  6
Continuous
 62
     7
100
AcDbLine
 10
-127.5500000000001
 20
100.559356746495
 30
0.0
 11
-127.5500000000001
 21
98.95935674649493
 31
0.0
  0
LINE
  5
2F5
330
1F
100
AcDbEntity
  8
0
  6
Continuous
 62
     7
100
AcDbLine
 10
-125.8000000000001
 20
100.5593567464948
 30
0.0
 11
-126.0000000000001
 21
100.559356746495
 31
0.0
  0
LINE
  5
2F6
330
1F
100
AcDbEntity
  8
0
  6
Continuous
 62
     7
100
AcDbLine
 10
-126.0000000000001
 20
100.559356746495
 30
0.0
 11
-126.3000000000001
 21
100.559356746495
 31
0.0
  0
LINE
  5
2F7
330
1F
100
AcDbEntity
  8
0
  6
Continuous
 62
     7
100
AcDbLine
 10
-145.8000000000001
 20
100.5593567464946
 30
0.0
 11
-145.8000000000001
 21
100.4093567464947
 31
0.0
  0
LINE
  5
2F8
330
1F
100
AcDbEntity
  8
0
  6
Continuous
 62
     7
100
AcDbLine
 10
-145.3
 20
98.75935674649477
 30
0.0
 11
-145.8000000000001
 21
98.75935674649463
 31
0.0
  0
LINE
  5
2F9
330
1F
100
AcDbEntity
  8
0
  6
Continuous
 62
     7
100
AcDbLine
 10
-145.3
 20
100.5593567464948
 30
0.0
 11
-145.7500000000001
 21
100.559356746495
 31
0.0
  0
LINE
  5
2FA
330
1F
100
AcDbEntity
  8
0
  6
Continuous
 62
     7
100
AcDbLine
 10
-144.3500000000001
 20
100.559356746495
 30
0.0
 11
-144.8
 21
100.5593567464945
 31
0.0
  0
LINE
  5
2FB
330
1F
100
AcDbEntity
  8
0
  6
Continuous
 62
     7
100
AcDbLine
 10
-126.7500000000001
 20
100.559356746495
 30
0.0
 11
-127.5500000000001
 21
100.559356746495
 31
0.0
  0
LINE
  5
2FC
330
1F
100
AcDbEntity
  8
0
  6
Continuous
 62
     7
100
AcDbLine
 10
-126.3000000000001
 20
100.559356746495
 30
0.0
 11
-126.7500000000001
 21
100.559356746495
 31
0.0
  0
LINE
  5
2FD
330
1F
100
AcDbEntity
  8
0
  6
Continuous
 62
     7
100
AcDbLine
 10
-144.8
 20
100.5593567464945
 30
0.0
 11
-145.1000000000001
 21
100.559356746495
 31
0.0
  0
LINE
  5
2FE
330
1F
100
AcDbEntity
  8
0
  6
Continuous
 62
     7
100
AcDbLine
 10
-143.5500000000001
 20
100.5593567464945
 30
0.0
 11
-144.3500000000001
 21
100.559356746495
 31
0.0
  0
LINE
  5
2FF
330
1F
100
AcDbEntity
  8
0
  6
Continuous
 62
     7
100
AcDbLine
 10
-125.0000000000001
 20
98.90935674649452
 30
0.0
 11
-124.0000000000001
 21
98.90935674649452
 31
0.0
  0
LINE
  5
300
330
1F
100
AcDbEntity
  8
0
  6
Continuous
 62
     7
100
AcDbLine
 10
-125.3000000000001
 20
98.90935674649452
 30
0.0
 11
-125.8000000000001
 21
98.90935674649452
 31
0.0
  0
LINE
  5
301
330
1F
100
AcDbEntity
  8
0
  6
Continuous
 62
     7
100
AcDbLine
 10
-125.8000000000001
 20
103.6593567464949
 30
0.0
 11
-125.8000000000001
 21
100.5593567464948
 31
0.0
  0
LINE
  5
302
330
1F
100
AcDbEntity
  8
0
  6
Continuous
 62
     7
100
AcDbLine
 10
-125.8000000000001
 20
98.95935674649496
 30
0.0
 11
-125.8000000000001
 21
98.90935674649452
 31
0.0
  0
LINE
  5
303
330
1F
100
AcDbEntity
  8
0
  6
Continuous
 62
     7
100
AcDbLine
 10
-125.0000000000001
 20
100.4093567464948
 30
0.0
 11
-124.0000000000001
 21
100.4093567464948
 31
0.0
  0
LINE
  5
304
330
1F
100
AcDbEntity
  8
0
  6
Continuous
 62
     7
100
AcDbLine
 10
-125.3000000000001
 20
100.4093567464948
 30
0.0
 11
-125.3000000000001
 21
100.5593567464948
 31
0.0
  0
LINE
  5
305
330
1F
100
AcDbEntity
  8
0
  6
Continuous
 62
     7
100
AcDbLine
 10
-125.3000000000001
 20
100.5593567464948
 30
0.0
 11
-125.3500000000001
 21
100.559356746495
 31
0.0
  0
LINE
  5
306
330
1F
100
AcDbEntity
  8
0
  6
Continuous
 62
     7
100
AcDbLine
 10
-125.3500000000001
 20
100.559356746495
 30
0.0
 11
-125.8000000000001
 21
100.5593567464948
 31
0.0
  0
LINE
  5
307
330
1F
100
AcDbEntity
  8
0
  6
Continuous
 62
     7
100
AcDbLine
 10
-125.3500000000001
 20
100.4093567464948
 30
0.0
 11
-125.3000000000001
 21
100.4093567464948
 31
0.0
  0
LINE
  5
308
330
1F
100
AcDbEntity
  8
0
  6
Continuous
 62
     7
100
AcDbLine
 10
-125.3000000000001
 20
100.4093567464948
 30
0.0
 11
-125.0000000000001
 21
100.4093567464948
 31
0.0
  0
LINE
  5
309
330
1F
100
AcDbEntity
  8
0
  6
Continuous
 62
     7
100
AcDbLine
 10
-123.5000000000001
 20
101.0093567464947
 30
0.0
 11
-123.5000000000001
 21
103.6593567464949
 31
0.0
  0
LINE
  5
30A
330
1F
100
AcDbEntity
  8
0
  6
Continuous
 62
     7
100
AcDbLine
 10
-123.7000000000001
 20
98.90935674649452
 30
0.0
 11
-123.7000000000001
 21
100.4093567464948
 31
0.0
  0
LINE
  5
30B
330
1F
100
AcDbEntity
  8
0
  6
Continuous
 62
     7
100
AcDbLine
 10
-124.0000000000001
 20
98.90935674649452
 30
0.0
 11
-124.0000000000001
 21
100.4093567464948
 31
0.0
  0
LINE
  5
30C
330
1F
100
AcDbEntity
  8
0
  6
Continuous
 62
     7
100
AcDbLine
 10
-125.0000000000001
 20
98.90935674649452
 30
0.0
 11
-125.0000000000001
 21
100.4093567464948
 31
0.0
  0
LINE
  5
30D
330
1F
100
AcDbEntity
  8
0
  6
Continuous
 62
     7
100
AcDbLine
 10
-123.7000000000001
 20
100.4093567464948
 30
0.0
 11
-124.0000000000001
 21
100.4093567464948
 31
0.0
  0
LINE
  5
30E
330
1F
100
AcDbEntity
  8
0
  6
Continuous
 62
     7
100
AcDbLine
 10
-123.2000000000001
 20
100.7093567464947
 30
0.0
 11
-123.5000000000001
 21
101.0093567464947
 31
0.0
  0
LINE
  5
30F
330
1F
100
AcDbEntity
  8
0
  6
Continuous
 62
     7
100
AcDbLine
 10
-142.5500000000001
 20
87.15935674649461
 30
0.0
 11
-142.5500000000001
 21
98.7593567464946
 31
0.0
  0
LINE
  5
310
330
1F
100
AcDbEntity
  8
0
  6
Continuous
 62
     7
100
AcDbLine
 10
-143.8500000000001
 20
76.4593567464949
 30
0.0
 11
-147.1000000000001
 21
76.4593567464947
 31
0.0
  0
LINE
  5
311
330
1F
100
AcDbEntity
  8
0
  6
Continuous
 62
     7
100
AcDbLine
 10
-140.2500000000001
 20
78.7593567464946
 30
0.0
 11
-140.2500000000001
 21
81.4593567464945
 31
0.0
  0
LINE
  5
312
330
1F
100
AcDbEntity
  8
0
  6
Continuous
 62
     7
100
AcDbLine
 10
-135.9500000000001
 20
81.4593567464945
 30
0.0
 11
-135.9500000000001
 21
78.7593567464946
 31
0.0
  0
LINE
  5
313
330
1F
100
AcDbEntity
  8
0
  6
Continuous
 62
     7
100
AcDbLine
 10
-131.2500000000001
 20
78.7593567464946
 30
0.0
 11
-131.2500000000001
 21
81.4593567464945
 31
0.0
  0
LINE
  5
314
330
1F
100
AcDbEntity
  8
0
  6
Continuous
 62
     7
100
AcDbLine
 10
-126.9000000000001
 20
84.6093567464952
 30
0.0
 11
-126.9000000000001
 21
82.20935674649522
 31
0.0
  0
LINE
  5
315
330
1F
100
AcDbEntity
  8
0
  6
Continuous
 62
     7
100
AcDbLine
 10
-126.9000000000001
 20
84.6093567464952
 30
0.0
 11
-126.6000000000001
 21
84.9093567464952
 31
0.0
  0
LINE
  5
316
330
1F
100
AcDbEntity
  8
0
  6
Continuous
 62
     7
100
AcDbLine
 10
-125.8000000000001
 20
98.75935674649452
 30
0.0
 11
-126.3000000000001
 21
98.7593567464944
 31
0.0
  0
LINE
  5
317
330
1F
100
AcDbEntity
  8
0
  6
Continuous
 62
     7
100
AcDbLine
 10
-125.8000000000001
 20
98.75935674649452
 30
0.0
 11
-125.8000000000001
 21
98.30935674649461
 31
0.0
  0
LINE
  5
318
330
1F
100
AcDbEntity
  8
0
  6
Continuous
 62
     7
100
AcDbLine
 10
-125.5000000000001
 20
98.00935674649463
 30
0.0
 11
-125.8000000000001
 21
98.30935674649461
 31
0.0
  0
LINE
  5
319
330
1F
100
AcDbEntity
  8
0
  6
Continuous
 62
     7
100
AcDbLine
 10
-125.3000000000001
 20
98.90935674649452
 30
0.0
 11
-125.3000000000001
 21
98.75935674649452
 31
0.0
  0
LINE
  5
31A
330
1F
100
AcDbEntity
  8
0
  6
Continuous
 62
     7
100
AcDbLine
 10
-128.5500000000001
 20
98.7593567464946
 30
0.0
 11
-142.5500000000001
 21
98.7593567464946
 31
0.0
  0
LINE
  5
31B
330
1F
100
AcDbEntity
  8
0
  6
Continuous
 62
     7
100
AcDbLine
 10
-144.8
 20
98.75935674649449
 30
0.0
 11
-143.5500000000001
 21
98.75935674649449
 31
0.0
  0
LINE
  5
31C
330
1F
100
AcDbEntity
  8
0
  6
Continuous
 62
     7
100
AcDbLine
 10
-144.8
 20
98.75935674649449
 30
0.0
 11
-145.3
 21
98.75935674649477
 31
0.0
  0
LINE
  5
31D
330
1F
100
AcDbEntity
  8
0
  6
Continuous
 62
     7
100
AcDbLine
 10
-146.1000000000001
 20
98.90935674649467
 30
0.0
 11
-147.1000000000001
 21
98.90935674649464
 31
0.0
  0
LINE
  5
31E
330
1F
100
AcDbEntity
  8
0
  6
Continuous
 62
     7
100
AcDbLine
 10
-145.3
 20
98.75935674649477
 30
0.0
 11
-145.3
 21
83.8093567464945
 31
0.0
  0
LINE
  5
31F
330
1F
100
AcDbEntity
  8
0
  6
Continuous
 62
     7
100
AcDbLine
 10
-126.1000000000002
 20
84.0093567464952
 30
0.0
 11
-126.1000000000002
 21
82.50935674649489
 31
0.0
  0
LINE
  5
320
330
1F
100
AcDbEntity
  8
0
  6
Continuous
 62
     7
100
AcDbLine
 10
-125.1000000000002
 20
84.0093567464952
 30
0.0
 11
-126.1000000000002
 21
84.0093567464952
 31
0.0
  0
LINE
  5
321
330
1F
100
AcDbEntity
  8
0
  6
Continuous
 62
     7
100
AcDbLine
 10
-124.3000000000002
 20
84.15935674649509
 30
0.0
 11
-124.8000000000002
 21
84.15935674649509
 31
0.0
  0
LINE
  5
322
330
1F
100
AcDbEntity
  8
0
  6
Continuous
 62
     7
100
AcDbLine
 10
-124.8000000000002
 20
84.15935674649509
 30
0.0
 11
-124.8000000000002
 21
84.0093567464952
 31
0.0
  0
LINE
  5
323
330
1F
100
AcDbEntity
  8
0
  6
Continuous
 62
     7
100
AcDbLine
 10
-126.4000000000002
 20
82.50935674649489
 30
0.0
 11
-126.4000000000002
 21
84.0093567464952
 31
0.0
  0
LINE
  5
324
330
1F
100
AcDbEntity
  8
0
  6
Continuous
 62
     7
100
AcDbLine
 10
-124.3000000000002
 20
82.35935674649491
 30
0.0
 11
-124.7500000000001
 21
82.35935674649491
 31
0.0
  0
LINE
  5
325
330
1F
100
AcDbEntity
  8
0
  6
Continuous
 62
     7
100
AcDbLine
 10
-124.8000000000002
 20
82.50935674649489
 30
0.0
 11
-124.7500000000001
 21
82.50935674649489
 31
0.0
  0
LINE
  5
326
330
1F
100
AcDbEntity
  8
0
  6
Continuous
 62
     7
100
AcDbLine
 10
-124.3000000000002
 20
79.2593567464946
 30
0.0
 11
-124.3000000000002
 21
82.35935674649491
 31
0.0
  0
LINE
  5
327
330
1F
100
AcDbEntity
  8
0
  6
Continuous
 62
     7
100
AcDbLine
 10
-125.1000000000002
 20
82.50935674649489
 30
0.0
 11
-126.1000000000002
 21
82.50935674649489
 31
0.0
  0
LINE
  5
328
330
1F
100
AcDbEntity
  8
0
  6
Continuous
 62
     7
100
AcDbLine
 10
-124.3000000000002
 20
84.00935674649511
 30
0.0
 11
-124.3000000000002
 21
83.9593567464949
 31
0.0
  0
LINE
  5
329
330
1F
100
AcDbEntity
  8
0
  6
Continuous
 62
     7
100
AcDbLine
 10
-124.8000000000002
 20
84.0093567464952
 30
0.0
 11
-125.1000000000002
 21
84.0093567464952
 31
0.0
  0
LINE
  5
32A
330
1F
100
AcDbEntity
  8
0
  6
Continuous
 62
     7
100
AcDbLine
 10
-124.3000000000002
 20
84.00935674649511
 30
0.0
 11
-124.8000000000002
 21
84.0093567464952
 31
0.0
  0
LINE
  5
32B
330
1F
100
AcDbEntity
  8
0
  6
Continuous
 62
     7
100
AcDbLine
 10
-126.6000000000001
 20
81.9093567464952
 30
0.0
 11
-126.9000000000001
 21
82.20935674649522
 31
0.0
  0
LINE
  5
32C
330
1F
100
AcDbEntity
  8
0
  6
Continuous
 62
     7
100
AcDbLine
 10
-126.6000000000001
 20
81.9093567464952
 30
0.0
 11
-126.6000000000001
 21
79.2593567464946
 31
0.0
  0
LINE
  5
32D
330
1F
100
AcDbEntity
  8
0
  6
Continuous
 62
     7
100
AcDbLine
 10
-126.1000000000002
 20
84.0093567464952
 30
0.0
 11
-126.4000000000002
 21
84.0093567464952
 31
0.0
  0
LINE
  5
32E
330
1F
100
AcDbEntity
  8
0
  6
Continuous
 62
     7
100
AcDbLine
 10
-126.1000000000002
 20
82.50935674649489
 30
0.0
 11
-126.4000000000002
 21
82.50935674649489
 31
0.0
  0
LINE
  5
32F
330
1F
100
AcDbEntity
  8
0
  6
Continuous
 62
     7
100
AcDbLine
 10
-142.6000000000001
 20
83.8093567464945
 30
0.0
 11
-144.8
 21
83.8093567464945
 31
0.0
  0
LINE
  5
330
330
1F
100
AcDbEntity
  8
0
  6
Continuous
 62
     7
100
AcDbLine
 10
-144.8
 20
83.8093567464945
 30
0.0
 11
-145.3
 21
83.8093567464945
 31
0.0
  0
LINE
  5
331
330
1F
100
AcDbEntity
  8
0
  6
Continuous
 62
     7
100
AcDbLine
 10
-125.1000000000002
 20
84.0093567464952
 30
0.0
 11
-125.1000000000002
 21
82.50935674649489
 31
0.0
  0
LINE
  5
332
330
1F
100
AcDbEntity
  8
0
  6
Continuous
 62
     7
100
AcDbLine
 10
-145.3
 20
79.2593567464946
 30
0.0
 11
-145.3
 21
83.8093567464945
 31
0.0
  0
LINE
  5
333
330
1F
100
AcDbEntity
  8
0
  6
Continuous
 62
     7
100
AcDbLine
 10
-127.5500000000001
 20
98.75935674649438
 30
0.0
 11
-126.3000000000001
 21
98.7593567464944
 31
0.0
  0
LINE
  5
334
330
1F
100
AcDbEntity
  8
0
  6
Continuous
 62
     7
100
AcDbLine
 10
-125.8000000000001
 20
98.75935674649452
 30
0.0
 11
-125.3000000000001
 21
98.75935674649452
 31
0.0
  0
LINE
  5
335
330
1F
100
AcDbEntity
  8
0
  6
Continuous
 62
     7
100
AcDbLine
 10
-128.5500000000001
 20
87.15935674649461
 30
0.0
 11
-128.5500000000001
 21
98.7593567464946
 31
0.0
  0
LINE
  5
336
330
1F
100
AcDbEntity
  8
0
  6
Continuous
 62
     7
100
AcDbLine
 10
-147.1000000000001
 20
76.4593567464947
 30
0.0
 11
-147.1000000000001
 21
98.90935674649464
 31
0.0
  0
LINE
  5
337
330
1F
100
AcDbEntity
  8
0
  6
Continuous
 62
     7
100
AcDbLine
 10
-142.5500000000001
 20
87.15935674649461
 30
0.0
 11
-128.5500000000001
 21
87.15935674649461
 31
0.0
  0
LINE
  5
338
330
1F
100
AcDbEntity
  8
0
  6
Continuous
 62
     7
100
AcDbLine
 10
-124.3000000000002
 20
84.15935674649509
 30
0.0
 11
-124.3000000000002
 21
84.6093567464952
 31
0.0
  0
LINE
  5
339
330
1F
100
AcDbEntity
  8
0
  6
Continuous
 62
     7
100
AcDbLine
 10
-124.6000000000002
 20
84.9093567464952
 30
0.0
 11
-126.6000000000001
 21
84.9093567464952
 31
0.0
  0
LINE
  5
33A
330
1F
100
AcDbEntity
  8
0
  6
Continuous
 62
     7
100
AcDbLine
 10
-125.0000000000001
 20
98.90935674649452
 30
0.0
 11
-125.3000000000001
 21
98.90935674649452
 31
0.0
  0
LINE
  5
33B
330
1F
100
AcDbEntity
  8
0
  6
Continuous
 62
     7
100
AcDbLine
 10
-124.3000000000002
 20
84.6093567464952
 30
0.0
 11
-124.6000000000002
 21
84.9093567464952
 31
0.0
  0
LINE
  5
33C
330
1F
100
AcDbEntity
  8
0
  6
Continuous
 62
     7
100
AcDbLine
 10
-121.5500000000001
 20
84.15935674649492
 30
0.0
 11
-121.5500000000002
 21
95.75935674649489
 31
0.0
  0
LINE
  5
33D
330
1F
100
AcDbEntity
  8
0
  6
Continuous
 62
     7
100
AcDbLine
 10
-121.5500000000001
 20
84.15935674649492
 30
0.0
 11
-107.5500000000002
 21
84.15935674649492
 31
0.0
  0
LINE
  5
33E
330
1F
100
AcDbEntity
  8
0
  6
Continuous
 62
     7
100
AcDbLine
 10
-105.3000000000001
 20
84.159356746495
 30
0.0
 11
-106.5500000000002
 21
84.159356746495
 31
0.0
  0
LINE
  5
33F
330
1F
100
AcDbEntity
  8
0
  6
Continuous
 62
     7
100
AcDbLine
 10
-107.5500000000002
 20
95.75935674649489
 30
0.0
 11
-121.5500000000002
 21
95.75935674649489
 31
0.0
  0
LINE
  5
340
330
1F
100
AcDbEntity
  8
0
  6
Continuous
 62
     7
100
AcDbLine
 10
-107.5000000000001
 20
99.10935674649497
 30
0.0
 11
-105.3000000000002
 21
99.10935674649497
 31
0.0
  0
LINE
  5
341
330
1F
100
AcDbEntity
  8
0
  6
Continuous
 62
     7
100
AcDbLine
 10
-109.8500000000001
 20
104.6593567464949
 30
0.0
 11
-107.3000000000001
 21
104.6593567464949
 31
0.0
  0
LINE
  5
342
330
1F
100
AcDbEntity
  8
0
  6
Continuous
 62
     7
100
AcDbLine
 10
-118.8500000000001
 20
104.1593567464949
 30
0.0
 11
-118.8500000000001
 21
104.6593567464949
 31
0.0
  0
LINE
  5
343
330
1F
100
AcDbEntity
  8
0
  6
Continuous
 62
     7
100
AcDbLine
 10
-118.8500000000001
 20
104.1593567464949
 30
0.0
 11
-118.8500000000001
 21
101.459356746495
 31
0.0
  0
LINE
  5
344
330
1F
100
AcDbEntity
  8
0
  6
Continuous
 62
     7
100
AcDbLine
 10
-114.1500000000001
 20
104.1593567464949
 30
0.0
 11
-114.1500000000001
 21
104.6593567464949
 31
0.0
  0
LINE
  5
345
330
1F
100
AcDbEntity
  8
0
  6
Continuous
 62
     7
100
AcDbLine
 10
-114.1500000000001
 20
101.459356746495
 30
0.0
 11
-114.1500000000001
 21
104.1593567464949
 31
0.0
  0
LINE
  5
346
330
1F
100
AcDbEntity
  8
0
  6
Continuous
 62
     7
100
AcDbLine
 10
-109.8500000000001
 20
104.6593567464949
 30
0.0
 11
-114.1500000000001
 21
104.6593567464949
 31
0.0
  0
LINE
  5
347
330
1F
100
AcDbEntity
  8
0
  6
Continuous
 62
     7
100
AcDbLine
 10
-109.8500000000001
 20
104.1593567464949
 30
0.0
 11
-109.8500000000001
 21
104.6593567464949
 31
0.0
  0
LINE
  5
348
330
1F
100
AcDbEntity
  8
0
  6
Continuous
 62
     7
100
AcDbLine
 10
-109.8500000000001
 20
104.1593567464949
 30
0.0
 11
-109.8500000000001
 21
101.459356746495
 31
0.0
  0
LINE
  5
349
330
1F
100
AcDbEntity
  8
0
  6
Continuous
 62
     7
100
AcDbLine
 10
-118.8500000000001
 20
104.6593567464949
 30
0.0
 11
-114.1500000000001
 21
104.6593567464949
 31
0.0
  0
LINE
  5
34A
330
1F
100
AcDbEntity
  8
0
  6
DASHED
 62
     7
100
AcDbLine
 10
-124.1
 20
83.9593567464949
 30
0.0
 11
-124.1000000000001
 21
82.35935674649491
 31
0.0
  0
LINE
  5
34B
330
1F
100
AcDbEntity
  8
0
  6
DASHED
 62
     7
100
AcDbLine
 10
-122.55
 20
83.9593567464949
 30
0.0
 11
-122.5500000000002
 21
84.15935674649509
 31
0.0
  0
LINE
  5
34C
330
1F
100
AcDbEntity
  8
0
  6
DASHED
 62
     7
100
AcDbLine
 10
-124.1
 20
83.9593567464949
 30
0.0
 11
-122.55
 21
83.9593567464949
 31
0.0
  0
LINE
  5
34D
330
1F
100
AcDbEntity
  8
0
  6
DASHED
 62
     7
100
AcDbLine
 10
-124.1
 20
83.9593567464949
 30
0.0
 11
-124.7500000000001
 21
83.9593567464949
 31
0.0
  0
LINE
  5
34E
330
1F
100
AcDbEntity
  8
0
  6
DASHED
 62
     7
100
AcDbLine
 10
-124.3000000000002
 20
82.35935674649491
 30
0.0
 11
-124.1000000000001
 21
82.35935674649491
 31
0.0
  0
LINE
  5
34F
330
1F
100
AcDbEntity
  8
0
  6
DASHED
 62
     7
100
AcDbLine
 10
-124.1000000000001
 20
82.35935674649491
 30
0.0
 11
-123.8000000000002
 21
82.35935674649542
 31
0.0
  0
LINE
  5
350
330
1F
100
AcDbEntity
  8
0
  6
DASHED
 62
     7
100
AcDbLine
 10
-123.8000000000002
 20
82.35935674649542
 30
0.0
 11
-123.3500000000001
 21
82.35935674649491
 31
0.0
  0
LINE
  5
351
330
1F
100
AcDbEntity
  8
0
  6
DASHED
 62
     7
100
AcDbLine
 10
-123.3500000000001
 20
82.35935674649491
 30
0.0
 11
-122.5500000000002
 21
82.35935674649542
 31
0.0
  0
LINE
  5
352
330
1F
100
AcDbEntity
  8
0
  6
DASHED
 62
     7
100
AcDbLine
 10
-104.3500000000001
 20
83.9593567464949
 30
0.0
 11
-104.3500000000001
 21
82.35935674649491
 31
0.0
  0
LINE
  5
353
330
1F
100
AcDbEntity
  8
0
  6
DASHED
 62
     7
100
AcDbLine
 10
-104.3500000000001
 20
82.35935674649491
 30
0.0
 11
-104.8000000000001
 21
82.3593567464952
 31
0.0
  0
LINE
  5
354
330
1F
100
AcDbEntity
  8
0
  6
DASHED
 62
     7
100
AcDbLine
 10
-105.0000000000001
 20
82.35935674649491
 30
0.0
 11
-104.8000000000001
 21
82.3593567464952
 31
0.0
  0
LINE
  5
355
330
1F
100
AcDbEntity
  8
0
  6
DASHED
 62
     7
100
AcDbLine
 10
-105.0000000000001
 20
83.9593567464949
 30
0.0
 11
-104.3500000000001
 21
83.9593567464949
 31
0.0
  0
LINE
  5
356
330
1F
100
AcDbEntity
  8
0
  6
DASHED
 62
     7
100
AcDbLine
 10
-105.0000000000001
 20
83.9593567464949
 30
0.0
 11
-105.0000000000001
 21
82.35935674649491
 31
0.0
  0
LINE
  5
357
330
1F
100
AcDbEntity
  8
0
  6
DASHED
 62
     7
100
AcDbLine
 10
-106.5500000000002
 20
84.159356746495
 30
0.0
 11
-106.5500000000001
 21
83.9593567464949
 31
0.0
  0
LINE
  5
358
330
1F
100
AcDbEntity
  8
0
  6
DASHED
 62
     7
100
AcDbLine
 10
-105.7500000000001
 20
82.35935674649491
 30
0.0
 11
-105.3000000000002
 21
82.35935674649542
 31
0.0
  0
LINE
  5
359
330
1F
100
AcDbEntity
  8
0
  6
DASHED
 62
     7
100
AcDbLine
 10
-105.3000000000002
 20
82.35935674649542
 30
0.0
 11
-105.0000000000001
 21
82.35935674649491
 31
0.0
  0
LINE
  5
35A
330
1F
100
AcDbEntity
  8
0
  6
DASHED
 62
     7
100
AcDbLine
 10
-106.5500000000002
 20
82.35935674649542
 30
0.0
 11
-105.7500000000001
 21
82.35935674649491
 31
0.0
  0
LINE
  5
35B
330
1F
100
AcDbEntity
  8
0
  6
DASHED
 62
     7
100
AcDbLine
 10
-124.3000000000002
 20
82.35935674649491
 30
0.0
 11
-124.7500000000001
 21
82.35935674649491
 31
0.0
  0
LINE
  5
35C
330
1F
100
AcDbEntity
  8
0
  6
DASHED
 62
     7
100
AcDbLine
 10
-124.7500000000001
 20
83.9593567464949
 30
0.0
 11
-124.7500000000001
 21
82.35935674649491
 31
0.0
  0
LINE
  5
35D
330
1F
100
AcDbEntity
  8
0
  6
DASHED
 62
     7
100
AcDbLine
 10
-106.5500000000001
 20
83.9593567464949
 30
0.0
 11
-105.0000000000001
 21
83.9593567464949
 31
0.0
  0
LINE
  5
35E
330
1F
100
AcDbEntity
  8
0
  6
DASHED
 62
     7
100
AcDbLine
 10
-112.55
 20
84.75935674649489
 30
0.0
 11
-116.5500000000001
 21
84.75935674649489
 31
0.0
  0
LINE
  5
35F
330
1F
100
AcDbEntity
  8
0
  6
DASHED
 62
     7
100
AcDbLine
 10
-120.5500000000001
 20
94.90935674649492
 30
0.0
 11
-120.5500000000001
 21
88.00935674649489
 31
0.0
  0
LINE
  5
360
330
1F
100
AcDbEntity
  8
0
  6
DASHED
 62
     7
100
AcDbLine
 10
-108.55
 20
88.00935674649489
 30
0.0
 11
-108.5500000000001
 21
94.90935674649492
 31
0.0
  0
LINE
  5
361
330
1F
100
AcDbEntity
  8
0
  6
DASHED
 62
     7
100
AcDbLine
 10
-117.7000000000001
 20
88.00935674649489
 30
0.0
 11
-120.5500000000001
 21
88.00935674649489
 31
0.0
  0
LINE
  5
362
330
1F
100
AcDbEntity
  8
0
  6
DASHED
 62
     7
100
AcDbLine
 10
-108.55
 20
88.00935674649489
 30
0.0
 11
-111.4000000000001
 21
88.00935674649489
 31
0.0
  0
LINE
  5
363
330
1F
100
AcDbEntity
  8
0
  6
DASHED
 62
     7
100
AcDbLine
 10
-108.5500000000001
 20
94.90935674649492
 30
0.0
 11
-120.5500000000001
 21
94.90935674649492
 31
0.0
  0
LINE
  5
364
330
1F
100
AcDbEntity
  8
0
  6
DASHED
 62
     7
100
AcDbLine
 10
-112.5500000000001
 20
86.0593567464949
 30
0.0
 11
-112.55
 21
84.75935674649489
 31
0.0
  0
LINE
  5
365
330
1F
100
AcDbEntity
  8
0
  6
DASHED
 62
     7
100
AcDbLine
 10
-116.5500000000001
 20
84.75935674649489
 30
0.0
 11
-116.5500000000001
 21
86.0593567464949
 31
0.0
  0
LINE
  5
366
330
1F
100
AcDbEntity
  8
0
  6
DASHED
 62
     7
100
AcDbLine
 10
-116.5500000000001
 20
86.0593567464949
 30
0.0
 11
-117.7000000000001
 21
86.0593567464949
 31
0.0
  0
LINE
  5
367
330
1F
100
AcDbEntity
  8
0
  6
DASHED
 62
     7
100
AcDbLine
 10
-111.4000000000001
 20
86.0593567464949
 30
0.0
 11
-112.5500000000001
 21
86.0593567464949
 31
0.0
  0
LINE
  5
368
330
1F
100
AcDbEntity
  8
0
  6
DASHED
 62
     7
100
AcDbLine
 10
-117.7000000000001
 20
86.0593567464949
 30
0.0
 11
-117.7000000000001
 21
88.00935674649489
 31
0.0
  0
LINE
  5
369
330
1F
100
AcDbEntity
  8
0
  6
DASHED
 62
     7
100
AcDbLine
 10
-111.4000000000001
 20
88.00935674649489
 30
0.0
 11
-111.4000000000001
 21
86.0593567464949
 31
0.0
  0
LINE
  5
36A
330
1F
100
AcDbEntity
  8
0
  6
DASHED
 62
     7
100
AcDbLine
 10
-143.5500000000001
 20
98.75935674649449
 30
0.0
 11
-143.5500000000001
 21
98.95935674649493
 31
0.0
  0
LINE
  5
36B
330
1F
100
AcDbEntity
  8
0
  6
DASHED
 62
     7
100
AcDbLine
 10
-127.5500000000001
 20
98.95935674649493
 30
0.0
 11
-127.5500000000001
 21
98.75935674649438
 31
0.0
  0
LINE
  5
36C
330
1F
100
AcDbEntity
  8
0
  6
DASHED
 62
     7
100
AcDbLine
 10
-145.1000000000001
 20
98.95935674649496
 30
0.0
 11
-145.7500000000001
 21
98.95935674649496
 31
0.0
  0
LINE
  5
36D
330
1F
100
AcDbEntity
  8
0
  6
DASHED
 62
     7
100
AcDbLine
 10
-145.1000000000001
 20
98.95935674649496
 30
0.0
 11
-145.1000000000001
 21
100.559356746495
 31
0.0
  0
LINE
  5
36E
330
1F
100
AcDbEntity
  8
0
  6
DASHED
 62
     7
100
AcDbLine
 10
-145.1000000000001
 20
100.559356746495
 30
0.0
 11
-145.3
 21
100.5593567464948
 31
0.0
  0
LINE
  5
36F
330
1F
100
AcDbEntity
  8
0
  6
DASHED
 62
     7
100
AcDbLine
 10
-126.0000000000001
 20
98.95935674649496
 30
0.0
 11
-127.5500000000001
 21
98.95935674649493
 31
0.0
  0
LINE
  5
370
330
1F
100
AcDbEntity
  8
0
  6
DASHED
 62
     7
100
AcDbLine
 10
-126.0000000000001
 20
98.95935674649496
 30
0.0
 11
-125.3500000000001
 21
98.95935674649496
 31
0.0
  0
LINE
  5
371
330
1F
100
AcDbEntity
  8
0
  6
DASHED
 62
     7
100
AcDbLine
 10
-126.0000000000001
 20
98.95935674649496
 30
0.0
 11
-126.0000000000001
 21
100.559356746495
 31
0.0
  0
LINE
  5
372
330
1F
100
AcDbEntity
  8
0
  6
DASHED
 62
     7
100
AcDbLine
 10
-125.8000000000001
 20
100.5593567464948
 30
0.0
 11
-126.0000000000001
 21
100.559356746495
 31
0.0
  0
LINE
  5
373
330
1F
100
AcDbEntity
  8
0
  6
DASHED
 62
     7
100
AcDbLine
 10
-126.0000000000001
 20
100.559356746495
 30
0.0
 11
-126.3000000000001
 21
100.559356746495
 31
0.0
  0
LINE
  5
374
330
1F
100
AcDbEntity
  8
0
  6
DASHED
 62
     7
100
AcDbLine
 10
-143.5500000000001
 20
98.95935674649493
 30
0.0
 11
-145.1000000000001
 21
98.95935674649496
 31
0.0
  0
LINE
  5
375
330
1F
100
AcDbEntity
  8
0
  6
DASHED
 62
     7
100
AcDbLine
 10
-145.7500000000001
 20
98.95935674649496
 30
0.0
 11
-145.7500000000001
 21
100.559356746495
 31
0.0
  0
LINE
  5
376
330
1F
100
AcDbEntity
  8
0
  6
DASHED
 62
     7
100
AcDbLine
 10
-145.3
 20
100.5593567464948
 30
0.0
 11
-145.7500000000001
 21
100.559356746495
 31
0.0
  0
LINE
  5
377
330
1F
100
AcDbEntity
  8
0
  6
DASHED
 62
     7
100
AcDbLine
 10
-144.3500000000001
 20
100.559356746495
 30
0.0
 11
-144.8
 21
100.5593567464945
 31
0.0
  0
LINE
  5
378
330
1F
100
AcDbEntity
  8
0
  6
DASHED
 62
     7
100
AcDbLine
 10
-126.7500000000001
 20
100.559356746495
 30
0.0
 11
-127.5500000000001
 21
100.559356746495
 31
0.0
  0
LINE
  5
379
330
1F
100
AcDbEntity
  8
0
  6
DASHED
 62
     7
100
AcDbLine
 10
-126.3000000000001
 20
100.559356746495
 30
0.0
 11
-126.7500000000001
 21
100.559356746495
 31
0.0
  0
LINE
  5
37A
330
1F
100
AcDbEntity
  8
0
  6
DASHED
 62
     7
100
AcDbLine
 10
-144.8
 20
100.5593567464945
 30
0.0
 11
-145.1000000000001
 21
100.559356746495
 31
0.0
  0
LINE
  5
37B
330
1F
100
AcDbEntity
  8
0
  6
DASHED
 62
     7
100
AcDbLine
 10
-143.5500000000001
 20
100.5593567464945
 30
0.0
 11
-144.3500000000001
 21
100.559356746495
 31
0.0
  0
LINE
  5
37C
330
1F
100
AcDbEntity
  8
0
  6
DASHED
 62
     7
100
AcDbLine
 10
-125.3500000000001
 20
98.95935674649496
 30
0.0
 11
-125.3500000000001
 21
100.559356746495
 31
0.0
  0
LINE
  5
37D
330
1F
100
AcDbEntity
  8
0
  6
DASHED
 62
     7
100
AcDbLine
 10
-125.3500000000001
 20
100.559356746495
 30
0.0
 11
-125.8000000000001
 21
100.5593567464948
 31
0.0
  0
LINE
  5
37E
330
1F
100
AcDbEntity
  8
0
  6
DASHED
 62
     7
100
AcDbLine
 10
-141.55
 20
94.90935674649498
 30
0.0
 11
-141.5500000000001
 21
88.009356746495
 31
0.0
  0
LINE
  5
37F
330
1F
100
AcDbEntity
  8
0
  6
DASHED
 62
     7
100
AcDbLine
 10
-133.5500000000001
 20
98.15935674649498
 30
0.0
 11
-133.5500000000001
 21
96.85935674649497
 31
0.0
  0
LINE
  5
380
330
1F
100
AcDbEntity
  8
0
  6
DASHED
 62
     7
100
AcDbLine
 10
-137.5500000000001
 20
96.85935674649497
 30
0.0
 11
-137.5500000000001
 21
98.15935674649498
 31
0.0
  0
LINE
  5
381
330
1F
100
AcDbEntity
  8
0
  6
DASHED
 62
     7
100
AcDbLine
 10
-137.5500000000001
 20
98.15935674649498
 30
0.0
 11
-133.5500000000001
 21
98.15935674649498
 31
0.0
  0
LINE
  5
382
330
1F
100
AcDbEntity
  8
0
  6
DASHED
 62
     7
100
AcDbLine
 10
-133.5500000000001
 20
96.85935674649497
 30
0.0
 11
-132.4000000000001
 21
96.85935674649497
 31
0.0
  0
LINE
  5
383
330
1F
100
AcDbEntity
  8
0
  6
DASHED
 62
     7
100
AcDbLine
 10
-132.4000000000001
 20
94.90935674649498
 30
0.0
 11
-129.5500000000001
 21
94.90935674649498
 31
0.0
  0
LINE
  5
384
330
1F
100
AcDbEntity
  8
0
  6
DASHED
 62
     7
100
AcDbLine
 10
-138.7000000000001
 20
96.85935674649497
 30
0.0
 11
-137.5500000000001
 21
96.85935674649497
 31
0.0
  0
LINE
  5
385
330
1F
100
AcDbEntity
  8
0
  6
DASHED
 62
     7
100
AcDbLine
 10
-138.7000000000001
 20
94.90935674649498
 30
0.0
 11
-138.7000000000001
 21
96.85935674649497
 31
0.0
  0
LINE
  5
386
330
1F
100
AcDbEntity
  8
0
  6
DASHED
 62
     7
100
AcDbLine
 10
-141.55
 20
94.90935674649498
 30
0.0
 11
-138.7000000000001
 21
94.90935674649498
 31
0.0
  0
LINE
  5
387
330
1F
100
AcDbEntity
  8
0
  6
DASHED
 62
     7
100
AcDbLine
 10
-132.4000000000001
 20
96.85935674649497
 30
0.0
 11
-132.4000000000001
 21
94.90935674649498
 31
0.0
  0
LINE
  5
388
330
1F
100
AcDbEntity
  8
0
  6
DASHED
 62
     7
100
AcDbLine
 10
-129.5500000000001
 20
88.009356746495
 30
0.0
 11
-129.5500000000001
 21
94.90935674649498
 31
0.0
  0
LINE
  5
389
330
1F
100
AcDbEntity
  8
0
  6
DASHED
 62
     7
100
AcDbLine
 10
-141.5500000000001
 20
88.009356746495
 30
0.0
 11
-129.5500000000001
 21
88.009356746495
 31
0.0
  0
LINE
  5
38A
330
1F
100
AcDbEntity
  8
0
  6
Continuous
 62
     7
100
AcDbLine
 10
-144.0500000000001
 20
234.7105516132642
 30
0.0
 11
-144.0500000000001
 21
232.7105516132639
 31
0.0
  0
LINE
  5
38B
330
1F
100
AcDbEntity
  8
0
  6
Continuous
 62
     7
100
AcDbLine
 10
-143.5500000000001
 20
234.310551613264
 30
0.0
 11
-143.5500000000001
 21
234.7105516132642
 31
0.0
  0
LINE
  5
38C
330
1F
100
AcDbEntity
  8
0
  6
Continuous
 62
     7
100
AcDbLine
 10
-143.5500000000001
 20
232.7105516132639
 30
0.0
 11
-144.0500000000001
 21
232.7105516132639
 31
0.0
  0
LINE
  5
38D
330
1F
100
AcDbEntity
  8
0
  6
Continuous
 62
     7
100
AcDbLine
 10
-127.5500000000001
 20
234.7105516132642
 30
0.0
 11
-143.5500000000001
 21
234.7105516132642
 31
0.0
  0
LINE
  5
38E
330
1F
100
AcDbEntity
  8
0
  6
Continuous
 62
     7
100
AcDbLine
 10
-128.15
 20
211.0105516132641
 30
0.0
 11
-121.95
 21
211.0105516132645
 31
0.0
  0
LINE
  5
38F
330
1F
100
AcDbEntity
  8
0
  6
Continuous
 62
     7
100
AcDbLine
 10
-136.6500000000001
 20
211.0105516132641
 30
0.0
 11
-136.6500000000001
 21
213.0105516132641
 31
0.0
  0
LINE
  5
390
330
1F
100
AcDbEntity
  8
0
  6
Continuous
 62
     7
100
AcDbLine
 10
-142.8500000000001
 20
211.0105516132641
 30
0.0
 11
-136.6500000000001
 21
211.0105516132641
 31
0.0
  0
LINE
  5
391
330
1F
100
AcDbEntity
  8
0
  6
Continuous
 62
     7
100
AcDbLine
 10
-121.95
 20
211.0105516132645
 30
0.0
 11
-121.95
 21
213.0105516132645
 31
0.0
  0
LINE
  5
392
330
1F
100
AcDbEntity
  8
0
  6
Continuous
 62
     7
100
AcDbLine
 10
-128.15
 20
213.0105516132641
 30
0.0
 11
-128.15
 21
211.0105516132641
 31
0.0
  0
LINE
  5
393
330
1F
100
AcDbEntity
  8
0
  6
Continuous
 62
     7
100
AcDbLine
 10
-136.8
 20
216.5105516132643
 30
0.0
 11
-143.0500000000001
 21
216.5105516132643
 31
0.0
  0
LINE
  5
394
330
1F
100
AcDbEntity
  8
0
  6
Continuous
 62
     7
100
AcDbLine
 10
-134.8000000000001
 20
218.4105516132645
 30
0.0
 11
-134.8000000000001
 21
218.9105516132646
 31
0.0
  0
LINE
  5
395
330
1F
100
AcDbEntity
  8
0
  6
Continuous
 62
     7
100
AcDbLine
 10
-136.3
 20
218.4105516132646
 30
0.0
 11
-134.8000000000001
 21
218.4105516132645
 31
0.0
  0
LINE
  5
396
330
1F
100
AcDbEntity
  8
0
  6
Continuous
 62
     7
100
AcDbLine
 10
-136.3
 20
218.9105516132646
 30
0.0
 11
-134.8000000000001
 21
218.9105516132646
 31
0.0
  0
LINE
  5
397
330
1F
100
AcDbEntity
  8
0
  6
Continuous
 62
     7
100
AcDbLine
 10
-136.1499999999999
 20
216.0105516132641
 30
0.0
 11
-136.1499999999999
 21
215.0105516132642
 31
0.0
  0
LINE
  5
398
330
1F
100
AcDbEntity
  8
0
  6
Continuous
 62
     7
100
AcDbLine
 10
-134.4500000000001
 20
213.0105516132643
 30
0.0
 11
-136.6500000000001
 21
213.0105516132641
 31
0.0
  0
LINE
  5
399
330
1F
100
AcDbEntity
  8
0
  6
Continuous
 62
     7
100
AcDbLine
 10
-135.6499999999999
 20
216.5105516132641
 30
0.0
 11
-134.3000000000001
 21
216.5105516132643
 31
0.0
  0
LINE
  5
39A
330
1F
100
AcDbEntity
  8
0
  6
Continuous
 62
     7
100
AcDbLine
 10
-134.4500000000001
 20
215.0105516132641
 30
0.0
 11
-130.3500000000001
 21
215.0105516132641
 31
0.0
  0
LINE
  5
39B
330
1F
100
AcDbEntity
  8
0
  6
Continuous
 62
     7
100
AcDbLine
 10
-134.8000000000001
 20
218.4105516132645
 30
0.0
 11
-134.8000000000001
 21
217.0105516132643
 31
0.0
  0
LINE
  5
39C
330
1F
100
AcDbEntity
  8
0
  6
Continuous
 62
     7
100
AcDbLine
 10
-134.4500000000001
 20
213.0105516132643
 30
0.0
 11
-134.4500000000001
 21
215.0105516132641
 31
0.0
  0
LINE
  5
39D
330
1F
100
AcDbEntity
  8
0
  6
Continuous
 62
     7
100
AcDbLine
 10
-136.3
 20
217.0105516132643
 30
0.0
 11
-136.3
 21
218.4105516132646
 31
0.0
  0
LINE
  5
39E
330
1F
100
AcDbEntity
  8
0
  6
Continuous
 62
     7
100
AcDbLine
 10
-136.3
 20
218.9105516132646
 30
0.0
 11
-136.3
 21
218.4105516132646
 31
0.0
  0
LINE
  5
39F
330
1F
100
AcDbEntity
  8
0
  6
Continuous
 62
     7
100
AcDbLine
 10
-128.15
 20
213.0105516132641
 30
0.0
 11
-130.3500000000001
 21
213.0105516132643
 31
0.0
  0
LINE
  5
3A0
330
1F
100
AcDbEntity
  8
0
  6
Continuous
 62
     7
100
AcDbLine
 10
-130.3500000000001
 20
215.0105516132641
 30
0.0
 11
-130.3500000000001
 21
213.0105516132643
 31
0.0
  0
LINE
  5
3A1
330
1F
100
AcDbEntity
  8
0
  6
Continuous
 62
     7
100
AcDbLine
 10
-134.3000000000001
 20
216.5105516132643
 30
0.0
 11
-129.1500000000001
 21
216.5105516132641
 31
0.0
  0
LINE
  5
3A2
330
1F
100
AcDbEntity
  8
0
  6
Continuous
 62
     7
100
AcDbLine
 10
-129.1500000000001
 20
216.5105516132641
 30
0.0
 11
-128.0500000000001
 21
216.5105516132643
 31
0.0
  0
LINE
  5
3A3
330
1F
100
AcDbEntity
  8
0
  6
Continuous
 62
     7
100
AcDbLine
 10
-128.6500000000001
 20
215.0105516132641
 30
0.0
 11
-128.6500000000001
 21
216.0105516132641
 31
0.0
  0
LINE
  5
3A4
330
1F
100
AcDbEntity
  8
0
  6
Continuous
 62
     7
100
AcDbLine
 10
-125.8000000000001
 20
214.5105516132641
 30
0.0
 11
-128.1500000000001
 21
214.5105516132641
 31
0.0
  0
LINE
  5
3A5
330
1F
100
AcDbEntity
  8
0
  6
Continuous
 62
     7
100
AcDbLine
 10
-134.4500000000001
 20
213.0105516132643
 30
0.0
 11
-130.3500000000001
 21
213.0105516132643
 31
0.0
  0
LINE
  5
3A6
330
1F
100
AcDbEntity
  8
0
  6
Continuous
 62
     7
100
AcDbLine
 10
-127.5500000000001
 20
222.2105516132644
 30
0.0
 11
-127.0500000000001
 21
222.2105516132644
 31
0.0
  0
LINE
  5
3A7
330
1F
100
AcDbEntity
  8
0
  6
Continuous
 62
     7
100
AcDbLine
 10
-125.8000000000001
 20
222.210551613264
 30
0.0
 11
-127.0500000000001
 21
222.2105516132644
 31
0.0
  0
LINE
  5
3A8
330
1F
100
AcDbEntity
  8
0
  6
Continuous
 62
     7
100
AcDbLine
 10
-127.0500000000001
 20
221.2105516132645
 30
0.0
 11
-127.0500000000001
 21
222.2105516132644
 31
0.0
  0
LINE
  5
3A9
330
1F
100
AcDbEntity
  8
0
  6
Continuous
 62
     7
100
AcDbLine
 10
-125.3000000000001
 20
219.0605516132642
 30
0.0
 11
-125.3000000000001
 21
220.5605516132644
 31
0.0
  0
LINE
  5
3AA
330
1F
100
AcDbEntity
  8
0
  6
Continuous
 62
     7
100
AcDbLine
 10
-125.8000000000001
 20
219.0605516132642
 30
0.0
 11
-125.8000000000001
 21
220.5605516132644
 31
0.0
  0
LINE
  5
3AB
330
1F
100
AcDbEntity
  8
0
  6
Continuous
 62
     7
100
AcDbLine
 10
-125.3000000000001
 20
220.5605516132644
 30
0.0
 11
-125.3000000000001
 21
220.7105516132644
 31
0.0
  0
LINE
  5
3AC
330
1F
100
AcDbEntity
  8
0
  6
Continuous
 62
     7
100
AcDbLine
 10
-125.3000000000001
 20
220.7105516132644
 30
0.0
 11
-125.3000000000001
 21
221.2105516132644
 31
0.0
  0
LINE
  5
3AD
330
1F
100
AcDbEntity
  8
0
  6
Continuous
 62
     7
100
AcDbLine
 10
-125.3000000000001
 20
221.2105516132644
 30
0.0
 11
-125.3000000000001
 21
222.210551613264
 31
0.0
  0
LINE
  5
3AE
330
1F
100
AcDbEntity
  8
0
  6
Continuous
 62
     7
100
AcDbLine
 10
-125.3000000000001
 20
222.210551613264
 30
0.0
 11
-125.8000000000001
 21
222.210551613264
 31
0.0
  0
LINE
  5
3AF
330
1F
100
AcDbEntity
  8
0
  6
Continuous
 62
     7
100
AcDbLine
 10
-125.8000000000001
 20
220.5605516132644
 30
0.0
 11
-125.3000000000001
 21
220.5605516132644
 31
0.0
  0
LINE
  5
3B0
330
1F
100
AcDbEntity
  8
0
  6
Continuous
 62
     7
100
AcDbLine
 10
-125.3000000000001
 20
221.2105516132644
 30
0.0
 11
-127.0500000000001
 21
221.2105516132645
 31
0.0
  0
LINE
  5
3B1
330
1F
100
AcDbEntity
  8
0
  6
Continuous
 62
     7
100
AcDbLine
 10
-125.3000000000001
 20
220.7105516132644
 30
0.0
 11
-127.5500000000001
 21
220.7105516132645
 31
0.0
  0
LINE
  5
3B2
330
1F
100
AcDbEntity
  8
0
  6
Continuous
 62
     7
100
AcDbLine
 10
-127.5500000000001
 20
220.7105516132645
 30
0.0
 11
-127.5500000000001
 21
220.510551613264
 31
0.0
  0
LINE
  5
3B3
330
1F
100
AcDbEntity
  8
0
  6
Continuous
 62
     7
100
AcDbLine
 10
-127.5500000000001
 20
217.0105516132643
 30
0.0
 11
-127.5500000000001
 21
218.4105516132642
 31
0.0
  0
LINE
  5
3B4
330
1F
100
AcDbEntity
  8
0
  6
Continuous
 62
     7
100
AcDbLine
 10
-127.5500000000001
 20
218.910551613264
 30
0.0
 11
-127.5500000000001
 21
218.4105516132642
 31
0.0
  0
LINE
  5
3B5
330
1F
100
AcDbEntity
  8
0
  6
Continuous
 62
     7
100
AcDbLine
 10
-126.0000000000001
 20
218.910551613264
 30
0.0
 11
-126.7500000000001
 21
218.910551613264
 31
0.0
  0
LINE
  5
3B6
330
1F
100
AcDbEntity
  8
0
  6
Continuous
 62
     7
100
AcDbLine
 10
-125.3000000000001
 20
218.9105516132638
 30
0.0
 11
-125.3500000000001
 21
218.910551613264
 31
0.0
  0
LINE
  5
3B7
330
1F
100
AcDbEntity
  8
0
  6
Continuous
 62
     7
100
AcDbLine
 10
-125.8500000000001
 20
218.910551613264
 30
0.0
 11
-126.0000000000001
 21
218.910551613264
 31
0.0
  0
LINE
  5
3B8
330
1F
100
AcDbEntity
  8
0
  6
Continuous
 62
     7
100
AcDbLine
 10
-125.3500000000001
 20
218.910551613264
 30
0.0
 11
-125.8500000000001
 21
218.910551613264
 31
0.0
  0
LINE
  5
3B9
330
1F
100
AcDbEntity
  8
0
  6
Continuous
 62
     7
100
AcDbLine
 10
-125.8000000000001
 20
219.0605516132642
 30
0.0
 11
-125.3000000000001
 21
219.0605516132642
 31
0.0
  0
LINE
  5
3BA
330
1F
100
AcDbEntity
  8
0
  6
Continuous
 62
     7
100
AcDbLine
 10
-125.3000000000001
 20
218.4105516132642
 30
0.0
 11
-127.5500000000001
 21
218.4105516132642
 31
0.0
  0
LINE
  5
3BB
330
1F
100
AcDbEntity
  8
0
  6
Continuous
 62
     7
100
AcDbLine
 10
-126.7500000000001
 20
218.910551613264
 30
0.0
 11
-127.5500000000001
 21
218.910551613264
 31
0.0
  0
LINE
  5
3BC
330
1F
100
AcDbEntity
  8
0
  6
Continuous
 62
     7
100
AcDbLine
 10
-125.3000000000001
 20
218.9105516132638
 30
0.0
 11
-125.3000000000001
 21
219.0605516132642
 31
0.0
  0
LINE
  5
3BD
330
1F
100
AcDbEntity
  8
0
  6
Continuous
 62
     7
100
AcDbLine
 10
-125.3000000000001
 20
218.4105516132642
 30
0.0
 11
-125.3000000000001
 21
218.9105516132638
 31
0.0
  0
LINE
  5
3BE
330
1F
100
AcDbEntity
  8
0
  6
Continuous
 62
     7
100
AcDbLine
 10
-125.3000000000001
 20
215.0105516132641
 30
0.0
 11
-125.3000000000001
 21
218.4105516132642
 31
0.0
  0
LINE
  5
3BF
330
1F
100
AcDbEntity
  8
0
  6
Continuous
 62
     7
100
AcDbLine
 10
-119.7500000000001
 20
213.0105516132643
 30
0.0
 11
-119.7500000000001
 21
215.010551613264
 31
0.0
  0
LINE
  5
3C0
330
1F
100
AcDbEntity
  8
0
  6
Continuous
 62
     7
100
AcDbLine
 10
-119.7500000000001
 20
213.0105516132643
 30
0.0
 11
-121.95
 21
213.0105516132645
 31
0.0
  0
LINE
  5
3C1
330
1F
100
AcDbEntity
  8
0
  6
Continuous
 62
     7
100
AcDbLine
 10
-119.7500000000001
 20
213.0105516132643
 30
0.0
 11
-115.65
 21
213.0105516132643
 31
0.0
  0
LINE
  5
3C2
330
1F
100
AcDbEntity
  8
0
  6
Continuous
 62
     7
100
AcDbLine
 10
-127.5500000000001
 20
220.7105516132645
 30
0.0
 11
-127.0500000000001
 21
221.2105516132645
 31
0.0
  0
LINE
  5
3C3
330
1F
100
AcDbEntity
  8
0
  6
Continuous
 62
     7
100
AcDbLine
 10
-143.0500000000001
 20
214.5105516132642
 30
0.0
 11
-136.6499999999999
 21
214.5105516132642
 31
0.0
  0
LINE
  5
3C4
330
1F
100
AcDbEntity
  8
0
  6
Continuous
 62
     7
100
AcDbLine
 10
-122.5500000000001
 20
237.6105516132638
 30
0.0
 11
-122.5500000000001
 21
239.0105516132643
 31
0.0
  0
LINE
  5
3C5
330
1F
100
AcDbEntity
  8
0
  6
Continuous
 62
     7
100
AcDbLine
 10
-120.9500000000001
 20
239.5105516132639
 30
0.0
 11
-122.0500000000001
 21
239.5105516132639
 31
0.0
  0
LINE
  5
3C6
330
1F
100
AcDbEntity
  8
0
  6
Continuous
 62
     7
100
AcDbLine
 10
-115.65
 20
243.0105516132642
 30
0.0
 11
-119.7500000000001
 21
243.0105516132642
 31
0.0
  0
LINE
  5
3C7
330
1F
100
AcDbEntity
  8
0
  6
Continuous
 62
     7
100
AcDbLine
 10
-124.8000000000001
 20
234.8105516132639
 30
0.0
 11
-124.8000000000001
 21
233.8105516132635
 31
0.0
  0
LINE
  5
3C8
330
1F
100
AcDbEntity
  8
0
  6
Continuous
 62
     7
100
AcDbLine
 10
-124.8000000000001
 20
235.3105516132639
 30
0.0
 11
-124.8000000000001
 21
234.8105516132639
 31
0.0
  0
LINE
  5
3C9
330
1F
100
AcDbEntity
  8
0
  6
Continuous
 62
     7
100
AcDbLine
 10
-125.8000000000001
 20
232.2105516132639
 30
0.0
 11
-125.8000000000001
 21
234.2105516132641
 31
0.0
  0
LINE
  5
3CA
330
1F
100
AcDbEntity
  8
0
  6
Continuous
 62
     7
100
AcDbLine
 10
-125.8000000000001
 20
222.210551613264
 30
0.0
 11
-125.8000000000001
 21
232.2105516132639
 31
0.0
  0
LINE
  5
3CB
330
1F
100
AcDbEntity
  8
0
  6
Continuous
 62
     7
100
AcDbLine
 10
-126.3000000000001
 20
232.7105516132639
 30
0.0
 11
-127.0500000000001
 21
232.7105516132639
 31
0.0
  0
LINE
  5
3CC
330
1F
100
AcDbEntity
  8
0
  6
Continuous
 62
     7
100
AcDbLine
 10
-126.3000000000001
 20
234.7105516132641
 30
0.0
 11
-127.0500000000001
 21
234.7105516132642
 31
0.0
  0
LINE
  5
3CD
330
1F
100
AcDbEntity
  8
0
  6
Continuous
 62
     7
100
AcDbLine
 10
-124.8000000000001
 20
235.4605516132638
 30
0.0
 11
-124.8000000000001
 21
235.3105516132639
 31
0.0
  0
LINE
  5
3CE
330
1F
100
AcDbEntity
  8
0
  6
Continuous
 62
     7
100
AcDbLine
 10
-124.8000000000001
 20
236.960551613264
 30
0.0
 11
-124.8000000000001
 21
235.4605516132638
 31
0.0
  0
LINE
  5
3CF
330
1F
100
AcDbEntity
  8
0
  6
Continuous
 62
     7
100
AcDbLine
 10
-127.5500000000001
 20
220.7105516132645
 30
0.0
 11
-127.5500000000001
 21
221.010551613264
 31
0.0
  0
LINE
  5
3D0
330
1F
100
AcDbEntity
  8
0
  6
Continuous
 62
     7
100
AcDbLine
 10
-127.5500000000001
 20
234.310551613264
 30
0.0
 11
-127.5500000000001
 21
234.7105516132642
 31
0.0
  0
LINE
  5
3D1
330
1F
100
AcDbEntity
  8
0
  6
Continuous
 62
     7
100
AcDbLine
 10
-127.5500000000001
 20
232.7105516132639
 30
0.0
 11
-127.5500000000001
 21
234.310551613264
 31
0.0
  0
LINE
  5
3D2
330
1F
100
AcDbEntity
  8
0
  6
Continuous
 62
     7
100
AcDbLine
 10
-127.5500000000001
 20
221.510551613264
 30
0.0
 11
-127.5500000000001
 21
222.2105516132644
 31
0.0
  0
LINE
  5
3D3
330
1F
100
AcDbEntity
  8
0
  6
Continuous
 62
     7
100
AcDbLine
 10
-127.5500000000001
 20
221.010551613264
 30
0.0
 11
-127.5500000000001
 21
221.510551613264
 31
0.0
  0
LINE
  5
3D4
330
1F
100
AcDbEntity
  8
0
  6
Continuous
 62
     7
100
AcDbLine
 10
-127.5500000000001
 20
232.7105516132639
 30
0.0
 11
-127.0500000000001
 21
232.7105516132639
 31
0.0
  0
LINE
  5
3D5
330
1F
100
AcDbEntity
  8
0
  6
Continuous
 62
     7
100
AcDbLine
 10
-127.0500000000001
 20
234.7105516132642
 30
0.0
 11
-127.5500000000001
 21
234.7105516132642
 31
0.0
  0
LINE
  5
3D6
330
1F
100
AcDbEntity
  8
0
  6
Continuous
 62
     7
100
AcDbLine
 10
-127.0500000000001
 20
232.7105516132639
 30
0.0
 11
-127.0500000000001
 21
234.7105516132642
 31
0.0
  0
LINE
  5
3D7
330
1F
100
AcDbEntity
  8
0
  6
Continuous
 62
     7
100
AcDbLine
 10
-124.8000000000001
 20
233.8105516132635
 30
0.0
 11
-124.3000000000001
 21
233.8105516132637
 31
0.0
  0
LINE
  5
3D8
330
1F
100
AcDbEntity
  8
0
  6
Continuous
 62
     7
100
AcDbLine
 10
-124.3000000000001
 20
233.8105516132637
 30
0.0
 11
-124.3000000000001
 21
223.8105516132634
 31
0.0
  0
LINE
  5
3D9
330
1F
100
AcDbEntity
  8
0
  6
Continuous
 62
     7
100
AcDbLine
 10
-122.5500000000001
 20
223.3105516132634
 30
0.0
 11
-122.5500000000001
 21
221.710551613264
 31
0.0
  0
LINE
  5
3DA
330
1F
100
AcDbEntity
  8
0
  6
Continuous
 62
     7
100
AcDbLine
 10
-124.8000000000001
 20
237.1105516132635
 30
0.0
 11
-124.8000000000001
 21
236.960551613264
 31
0.0
  0
LINE
  5
3DB
330
1F
100
AcDbEntity
  8
0
  6
Continuous
 62
     7
100
AcDbLine
 10
-124.8000000000001
 20
237.6105516132638
 30
0.0
 11
-124.8000000000001
 21
237.1105516132635
 31
0.0
  0
LINE
  5
3DC
330
1F
100
AcDbEntity
  8
0
  6
Continuous
 62
     7
100
AcDbLine
 10
-124.8000000000001
 20
237.1105516132635
 30
0.0
 11
-124.7500000000001
 21
237.110551613264
 31
0.0
  0
LINE
  5
3DD
330
1F
100
AcDbEntity
  8
0
  6
Continuous
 62
     7
100
AcDbLine
 10
-124.7500000000001
 20
237.110551613264
 30
0.0
 11
-124.2500000000001
 21
237.110551613264
 31
0.0
  0
LINE
  5
3DE
330
1F
100
AcDbEntity
  8
0
  6
Continuous
 62
     7
100
AcDbLine
 10
-124.2500000000001
 20
237.110551613264
 30
0.0
 11
-124.1
 21
237.1105516132641
 31
0.0
  0
LINE
  5
3DF
330
1F
100
AcDbEntity
  8
0
  6
Continuous
 62
     7
100
AcDbLine
 10
-124.1
 20
237.1105516132641
 30
0.0
 11
-123.35
 21
237.110551613264
 31
0.0
  0
LINE
  5
3E0
330
1F
100
AcDbEntity
  8
0
  6
Continuous
 62
     7
100
AcDbLine
 10
-124.3000000000001
 20
236.960551613264
 30
0.0
 11
-124.8000000000001
 21
236.960551613264
 31
0.0
  0
LINE
  5
3E1
330
1F
100
AcDbEntity
  8
0
  6
Continuous
 62
     7
100
AcDbLine
 10
-124.8000000000001
 20
237.6105516132638
 30
0.0
 11
-122.5500000000001
 21
237.6105516132638
 31
0.0
  0
LINE
  5
3E2
330
1F
100
AcDbEntity
  8
0
  6
Continuous
 62
     7
100
AcDbLine
 10
-142.8500000000001
 20
213.0105516132645
 30
0.0
 11
-142.8500000000001
 21
211.0105516132641
 31
0.0
  0
LINE
  5
3E3
330
1F
100
AcDbEntity
  8
0
  6
Continuous
 62
     7
100
AcDbLine
 10
-142.8500000000001
 20
213.0105516132645
 30
0.0
 11
-145.0500000000001
 21
213.0105516132643
 31
0.0
  0
LINE
  5
3E4
330
1F
100
AcDbEntity
  8
0
  6
Continuous
 62
     7
100
AcDbLine
 10
-145.0500000000001
 20
215.0105516132641
 30
0.0
 11
-145.0500000000001
 21
213.0105516132643
 31
0.0
  0
LINE
  5
3E5
330
1F
100
AcDbEntity
  8
0
  6
Continuous
 62
     7
100
AcDbLine
 10
-143.5500000000001
 20
216.0105516132641
 30
0.0
 11
-143.5500000000001
 21
215.0105516132642
 31
0.0
  0
LINE
  5
3E6
330
1F
100
AcDbEntity
  8
0
  6
Continuous
 62
     7
100
AcDbLine
 10
-143.5500000000001
 20
217.0105516132643
 30
0.0
 11
-143.5500000000001
 21
218.4105516132642
 31
0.0
  0
LINE
  5
3E7
330
1F
100
AcDbEntity
  8
0
  6
Continuous
 62
     7
100
AcDbLine
 10
-143.5500000000001
 20
218.9105516132645
 30
0.0
 11
-143.5500000000001
 21
218.4105516132642
 31
0.0
  0
LINE
  5
3E8
330
1F
100
AcDbEntity
  8
0
  6
Continuous
 62
     7
100
AcDbLine
 10
-145.8000000000001
 20
218.4105516132642
 30
0.0
 11
-143.5500000000001
 21
218.4105516132642
 31
0.0
  0
LINE
  5
3E9
330
1F
100
AcDbEntity
  8
0
  6
Continuous
 62
     7
100
AcDbLine
 10
-145.8000000000001
 20
216.5105516132643
 30
0.0
 11
-144.0500000000001
 21
216.5105516132641
 31
0.0
  0
LINE
  5
3EA
330
1F
100
AcDbEntity
  8
0
  6
Continuous
 62
     7
100
AcDbLine
 10
-145.0500000000001
 20
243.0105516132642
 30
0.0
 11
-143.8500000000001
 21
243.010551613264
 31
0.0
  0
LINE
  5
3EB
330
1F
100
AcDbEntity
  8
0
  6
Continuous
 62
     7
100
AcDbLine
 10
-144.0500000000001
 20
234.7105516132642
 30
0.0
 11
-145.1000000000001
 21
234.7105516132641
 31
0.0
  0
LINE
  5
3EC
330
1F
100
AcDbEntity
  8
0
  6
Continuous
 62
     7
100
AcDbLine
 10
-143.5500000000001
 20
234.7105516132642
 30
0.0
 11
-144.0500000000001
 21
234.7105516132642
 31
0.0
  0
LINE
  5
3ED
330
1F
100
AcDbEntity
  8
0
  6
Continuous
 62
     7
100
AcDbLine
 10
-145.0500000000001
 20
243.0105516132642
 30
0.0
 11
-145.0500000000001
 21
241.0105516132641
 31
0.0
  0
LINE
  5
3EE
330
1F
100
AcDbEntity
  8
0
  6
Continuous
 62
     7
100
AcDbLine
 10
-145.0500000000001
 20
241.0105516132641
 30
0.0
 11
-147.1
 21
241.0105516132643
 31
0.0
  0
LINE
  5
3EF
330
1F
100
AcDbEntity
  8
0
  6
Continuous
 62
     7
100
AcDbLine
 10
-143.5500000000001
 20
220.510551613264
 30
0.0
 11
-143.5500000000001
 21
220.7105516132644
 31
0.0
  0
LINE
  5
3F0
330
1F
100
AcDbEntity
  8
0
  6
Continuous
 62
     7
100
AcDbLine
 10
-143.5500000000001
 20
221.010551613264
 30
0.0
 11
-143.5500000000001
 21
220.7105516132644
 31
0.0
  0
LINE
  5
3F1
330
1F
100
AcDbEntity
  8
0
  6
Continuous
 62
     7
100
AcDbLine
 10
-145.1000000000001
 20
218.910551613264
 30
0.0
 11
-144.3500000000001
 21
218.910551613264
 31
0.0
  0
LINE
  5
3F2
330
1F
100
AcDbEntity
  8
0
  6
Continuous
 62
     7
100
AcDbLine
 10
-144.3500000000001
 20
218.910551613264
 30
0.0
 11
-143.5500000000001
 21
218.9105516132645
 31
0.0
  0
LINE
  5
3F3
330
1F
100
AcDbEntity
  8
0
  6
Continuous
 62
     7
100
AcDbLine
 10
-144.0500000000001
 20
221.2105516132642
 30
0.0
 11
-143.5500000000001
 21
220.7105516132644
 31
0.0
  0
LINE
  5
3F4
330
1F
100
AcDbEntity
  8
0
  6
Continuous
 62
     7
100
AcDbLine
 10
-144.0500000000001
 20
221.2105516132642
 30
0.0
 11
-145.8000000000001
 21
221.2105516132642
 31
0.0
  0
LINE
  5
3F5
330
1F
100
AcDbEntity
  8
0
  6
Continuous
 62
     7
100
AcDbLine
 10
-143.5500000000001
 20
220.7105516132644
 30
0.0
 11
-145.8000000000001
 21
220.7105516132643
 31
0.0
  0
LINE
  5
3F6
330
1F
100
AcDbEntity
  8
0
  6
Continuous
 62
     7
100
AcDbLine
 10
-144.0500000000001
 20
222.2105516132641
 30
0.0
 11
-144.0500000000001
 21
221.2105516132642
 31
0.0
  0
LINE
  5
3F7
330
1F
100
AcDbEntity
  8
0
  6
Continuous
 62
     7
100
AcDbLine
 10
-144.0500000000001
 20
232.7105516132639
 30
0.0
 11
-144.0500000000001
 21
222.2105516132641
 31
0.0
  0
LINE
  5
3F8
330
1F
100
AcDbEntity
  8
0
  6
Continuous
 62
     7
100
AcDbLine
 10
-144.0500000000001
 20
222.2105516132641
 30
0.0
 11
-143.5500000000001
 21
222.2105516132642
 31
0.0
  0
LINE
  5
3F9
330
1F
100
AcDbEntity
  8
0
  6
Continuous
 62
     7
100
AcDbLine
 10
-143.5500000000001
 20
232.7105516132639
 30
0.0
 11
-143.5500000000001
 21
234.310551613264
 31
0.0
  0
LINE
  5
3FA
330
1F
100
AcDbEntity
  8
0
  6
Continuous
 62
     7
100
AcDbLine
 10
-143.5500000000001
 20
221.510551613264
 30
0.0
 11
-143.5500000000001
 21
221.010551613264
 31
0.0
  0
LINE
  5
3FB
330
1F
100
AcDbEntity
  8
0
  6
Continuous
 62
     7
100
AcDbLine
 10
-143.5500000000001
 20
222.2105516132642
 30
0.0
 11
-143.5500000000001
 21
221.510551613264
 31
0.0
  0
LINE
  5
3FC
330
1F
100
AcDbEntity
  8
0
  6
Continuous
 62
     7
100
AcDbLine
 10
-145.6000000000001
 20
222.210551613264
 30
0.0
 11
-145.8000000000001
 21
222.210551613264
 31
0.0
  0
LINE
  5
3FD
330
1F
100
AcDbEntity
  8
0
  6
Continuous
 62
     7
100
AcDbLine
 10
-145.6000000000001
 20
222.210551613264
 30
0.0
 11
-145.6000000000001
 21
234.2105516132641
 31
0.0
  0
LINE
  5
3FE
330
1F
100
AcDbEntity
  8
0
  6
Continuous
 62
     7
100
AcDbLine
 10
-145.8000000000001
 20
219.0605516132643
 30
0.0
 11
-145.3000000000001
 21
219.0605516132643
 31
0.0
  0
LINE
  5
3FF
330
1F
100
AcDbEntity
  8
0
  6
Continuous
 62
     7
100
AcDbLine
 10
-147.1
 20
215.0105516132643
 30
0.0
 11
-145.0500000000001
 21
215.0105516132641
 31
0.0
  0
LINE
  5
400
330
1F
100
AcDbEntity
  8
0
  6
Continuous
 62
     7
100
AcDbLine
 10
-145.8000000000001
 20
218.9105516132643
 30
0.0
 11
-145.7500000000001
 21
218.910551613264
 31
0.0
  0
LINE
  5
401
330
1F
100
AcDbEntity
  8
0
  6
Continuous
 62
     7
100
AcDbLine
 10
-145.2500000000001
 20
218.910551613264
 30
0.0
 11
-145.1000000000001
 21
218.910551613264
 31
0.0
  0
LINE
  5
402
330
1F
100
AcDbEntity
  8
0
  6
Continuous
 62
     7
100
AcDbLine
 10
-145.7500000000001
 20
218.910551613264
 30
0.0
 11
-145.2500000000001
 21
218.910551613264
 31
0.0
  0
LINE
  5
403
330
1F
100
AcDbEntity
  8
0
  6
Continuous
 62
     7
100
AcDbLine
 10
-145.3000000000001
 20
220.5605516132643
 30
0.0
 11
-145.8000000000001
 21
220.5605516132643
 31
0.0
  0
LINE
  5
404
330
1F
100
AcDbEntity
  8
0
  6
Continuous
 62
     7
100
AcDbLine
 10
-145.3000000000001
 20
220.5605516132643
 30
0.0
 11
-145.3000000000001
 21
219.0605516132643
 31
0.0
  0
LINE
  5
405
330
1F
100
AcDbEntity
  8
0
  6
Continuous
 62
     7
100
AcDbLine
 10
-147.1
 20
213.0105516132643
 30
0.0
 11
-145.0500000000001
 21
213.0105516132643
 31
0.0
  0
LINE
  5
406
330
1F
100
AcDbEntity
  8
0
  6
Continuous
 62
     7
100
AcDbLine
 10
-147.1
 20
215.0105516132643
 30
0.0
 11
-147.1
 21
216.0105516132639
 31
0.0
  0
LINE
  5
407
330
1F
100
AcDbEntity
  8
0
  6
Continuous
 62
     7
100
AcDbLine
 10
-147.1
 20
215.0105516132643
 30
0.0
 11
-147.1
 21
213.0105516132643
 31
0.0
  0
LINE
  5
408
330
1F
100
AcDbEntity
  8
0
  6
Continuous
 62
     7
100
AcDbLine
 10
-147.1
 20
240.0105516132639
 30
0.0
 11
-147.0057636860284
 21
240.010551613264
 31
0.0
  0
LINE
  5
409
330
1F
100
AcDbEntity
  8
0
  6
Continuous
 62
     7
100
AcDbLine
 10
-146.9385440143705
 20
239.8365143541157
 30
0.0
 11
-146.9628818645653
 21
239.8185912503722
 31
0.0
  0
LINE
  5
40A
330
1F
100
AcDbEntity
  8
0
  6
Continuous
 62
     7
100
AcDbLine
 10
-145.8000000000001
 20
220.7105516132643
 30
0.0
 11
-145.8000000000001
 21
220.5605516132643
 31
0.0
  0
LINE
  5
40B
330
1F
100
AcDbEntity
  8
0
  6
Continuous
 62
     7
100
AcDbLine
 10
-145.8000000000001
 20
221.2105516132642
 30
0.0
 11
-145.8000000000001
 21
220.7105516132643
 31
0.0
  0
LINE
  5
40C
330
1F
100
AcDbEntity
  8
0
  6
Continuous
 62
     7
100
AcDbLine
 10
-145.8000000000001
 20
219.0605516132643
 30
0.0
 11
-145.8000000000001
 21
218.9105516132643
 31
0.0
  0
LINE
  5
40D
330
1F
100
AcDbEntity
  8
0
  6
Continuous
 62
     7
100
AcDbLine
 10
-145.8000000000001
 20
218.9105516132643
 30
0.0
 11
-145.8000000000001
 21
218.4105516132642
 31
0.0
  0
LINE
  5
40E
330
1F
100
AcDbEntity
  8
0
  6
Continuous
 62
     7
100
AcDbLine
 10
-145.8000000000001
 20
218.4105516132642
 30
0.0
 11
-145.8000000000001
 21
216.5105516132643
 31
0.0
  0
LINE
  5
40F
330
1F
100
AcDbEntity
  8
0
  6
Continuous
 62
     7
100
AcDbLine
 10
-145.8000000000001
 20
220.5605516132643
 30
0.0
 11
-145.8000000000001
 21
219.5605516132642
 31
0.0
  0
LINE
  5
410
330
1F
100
AcDbEntity
  8
0
  6
Continuous
 62
     7
100
AcDbLine
 10
-145.8000000000001
 20
222.210551613264
 30
0.0
 11
-145.8000000000001
 21
221.2105516132642
 31
0.0
  0
LINE
  5
411
330
1F
100
AcDbEntity
  8
0
  6
Continuous
 62
     7
100
AcDbLine
 10
-147.1
 20
236.5368343505071
 30
0.0
 11
-147.1
 21
239.4842688760207
 31
0.0
  0
LINE
  5
412
330
1F
100
AcDbEntity
  8
0
  6
Continuous
 62
     7
100
AcDbLine
 10
-147.1
 20
236.010551613264
 30
0.0
 11
-147.1
 21
236.3842688760207
 31
0.0
  0
LINE
  5
413
330
1F
100
AcDbEntity
  8
0
  6
Continuous
 62
     7
100
AcDbLine
 10
-147.1
 20
239.6368343505068
 30
0.0
 11
-147.1
 21
240.0105516132639
 31
0.0
  0
LINE
  5
414
330
1F
100
AcDbEntity
  8
0
  6
Continuous
 62
     7
100
AcDbLine
 10
-147.1
 20
243.0105516132642
 30
0.0
 11
-147.1
 21
241.0105516132643
 31
0.0
  0
LINE
  5
415
330
1F
100
AcDbEntity
  8
0
  6
Continuous
 62
     7
100
AcDbLine
 10
-147.1
 20
219.6368343505071
 30
0.0
 11
-147.1
 21
220.010551613264
 31
0.0
  0
LINE
  5
416
330
1F
100
AcDbEntity
  8
0
  6
Continuous
 62
     7
100
AcDbLine
 10
-147.1
 20
216.0105516132639
 30
0.0
 11
-147.1
 21
216.3842688760207
 31
0.0
  0
LINE
  5
417
330
1F
100
AcDbEntity
  8
0
  6
Continuous
 62
     7
100
AcDbLine
 10
-147.1
 20
216.5368343505071
 30
0.0
 11
-147.1
 21
219.4842688760211
 31
0.0
  0
LINE
  5
418
330
1F
100
AcDbEntity
  8
0
  6
Continuous
 62
     7
100
AcDbLine
 10
-147.1
 20
220.010551613264
 30
0.0
 11
-147.1
 21
236.010551613264
 31
0.0
  0
LINE
  5
419
330
1F
100
AcDbEntity
  8
0
  6
Continuous
 62
     7
100
AcDbLine
 10
-147.1
 20
220.010551613264
 30
0.0
 11
-147.0057636860284
 21
220.010551613264
 31
0.0
  0
LINE
  5
41A
330
1F
100
AcDbEntity
  8
0
  6
Continuous
 62
     7
100
AcDbLine
 10
-147.0057636860284
 20
216.0105516132644
 30
0.0
 11
-147.1
 21
216.0105516132639
 31
0.0
  0
LINE
  5
41B
330
1F
100
AcDbEntity
  8
0
  6
Continuous
 62
     7
100
AcDbLine
 10
-147.1
 20
219.4842688760211
 30
0.0
 11
-147.1
 21
219.6368343505071
 31
0.0
  0
LINE
  5
41C
330
1F
100
AcDbEntity
  8
0
  6
Continuous
 62
     7
100
AcDbLine
 10
-146.1000000000001
 20
216.5105516132641
 30
0.0
 11
-146.1000000000001
 21
216.460551613264
 31
0.0
  0
LINE
  5
41D
330
1F
100
AcDbEntity
  8
0
  6
Continuous
 62
     7
100
AcDbLine
 10
-146.1
 20
239.560551613264
 30
0.0
 11
-146.1
 21
236.460551613264
 31
0.0
  0
LINE
  5
41E
330
1F
100
AcDbEntity
  8
0
  6
Continuous
 62
     7
100
AcDbLine
 10
-146.1000000000001
 20
216.5105516132641
 30
0.0
 11
-145.8000000000001
 21
216.5105516132643
 31
0.0
  0
LINE
  5
41F
330
1F
100
AcDbEntity
  8
0
  6
Continuous
 62
     7
100
AcDbLine
 10
-146.1
 20
219.560551613264
 30
0.0
 11
-145.8000000000001
 21
219.5605516132642
 31
0.0
  0
LINE
  5
420
330
1F
100
AcDbEntity
  8
0
  6
Continuous
 62
     7
100
AcDbLine
 10
-145.8000000000001
 20
219.5605516132642
 30
0.0
 11
-145.8000000000001
 21
219.0605516132643
 31
0.0
  0
LINE
  5
421
330
1F
100
AcDbEntity
  8
0
  6
Continuous
 62
     7
100
AcDbLine
 10
-146.9385440143705
 20
219.8365143541158
 30
0.0
 11
-146.9628818645653
 21
219.8185912503722
 31
0.0
  0
LINE
  5
422
330
1F
100
AcDbEntity
  8
0
  6
Continuous
 62
     7
100
AcDbLine
 10
-146.962881864565
 20
216.2025119761557
 30
0.0
 11
-146.9385440143702
 21
216.1845888724122
 31
0.0
  0
LINE
  5
423
330
1F
100
AcDbEntity
  8
0
  6
Continuous
 62
     7
100
AcDbLine
 10
-147.1
 20
216.3842688760207
 30
0.0
 11
-147.1
 21
216.5368343505071
 31
0.0
  0
LINE
  5
424
330
1F
100
AcDbEntity
  8
0
  6
Continuous
 62
     7
100
AcDbLine
 10
-147.0057636860284
 20
236.010551613264
 30
0.0
 11
-147.1
 21
236.010551613264
 31
0.0
  0
LINE
  5
425
330
1F
100
AcDbEntity
  8
0
  6
Continuous
 62
     7
100
AcDbLine
 10
-147.1
 20
240.0105516132639
 30
0.0
 11
-147.1
 21
241.0105516132643
 31
0.0
  0
LINE
  5
426
330
1F
100
AcDbEntity
  8
0
  6
Continuous
 62
     7
100
AcDbLine
 10
-147.1
 20
239.4842688760207
 30
0.0
 11
-147.1
 21
239.6368343505068
 31
0.0
  0
LINE
  5
427
330
1F
100
AcDbEntity
  8
0
  6
Continuous
 62
     7
100
AcDbLine
 10
-147.1
 20
236.3842688760207
 30
0.0
 11
-147.1
 21
236.5368343505071
 31
0.0
  0
LINE
  5
428
330
1F
100
AcDbEntity
  8
0
  6
Continuous
 62
     7
100
AcDbLine
 10
-146.9628818645651
 20
236.2025119761557
 30
0.0
 11
-146.9385440143702
 21
236.1845888724122
 31
0.0
  0
LINE
  5
429
330
1F
100
AcDbEntity
  8
0
  6
Continuous
 62
     7
100
AcDbLine
 10
-146.1000000000001
 20
216.460551613264
 30
0.0
 11
-146.6830749964236
 21
216.732443949375
 31
0.0
  0
LINE
  5
42A
330
1F
100
AcDbEntity
  8
0
  6
Continuous
 62
     7
100
AcDbLine
 10
-146.6830749964236
 20
219.288659277153
 30
0.0
 11
-146.1
 21
219.560551613264
 31
0.0
  0
LINE
  5
42B
330
1F
100
AcDbEntity
  8
0
  6
Continuous
 62
     7
100
AcDbLine
 10
-146.6830749964236
 20
239.288659277153
 30
0.0
 11
-146.1
 21
239.560551613264
 31
0.0
  0
LINE
  5
42C
330
1F
100
AcDbEntity
  8
0
  6
Continuous
 62
     7
100
AcDbLine
 10
-146.1
 20
236.460551613264
 30
0.0
 11
-146.6830749964236
 21
236.732443949375
 31
0.0
  0
LINE
  5
42D
330
1F
100
AcDbEntity
  8
0
  6
Continuous
 62
     7
100
AcDbLine
 10
-119.7500000000001
 20
215.010551613264
 30
0.0
 11
-115.65
 21
215.010551613264
 31
0.0
  0
LINE
  5
42E
330
1F
100
AcDbEntity
  8
0
  6
Continuous
 62
     7
100
AcDbLine
 10
-124.3000000000001
 20
223.8105516132634
 30
0.0
 11
-124.3000000000001
 21
221.8105516132636
 31
0.0
  0
LINE
  5
42F
330
1F
100
AcDbEntity
  8
0
  6
Continuous
 62
     7
100
AcDbLine
 10
-123.8000000000001
 20
221.3105516132636
 30
0.0
 11
-123.0500000000001
 21
221.310551613264
 31
0.0
  0
LINE
  5
430
330
1F
100
AcDbEntity
  8
0
  6
Continuous
 62
     7
100
AcDbLine
 10
-122.5500000000001
 20
223.3105516132634
 30
0.0
 11
-123.0500000000001
 21
223.3105516132634
 31
0.0
  0
LINE
  5
431
330
1F
100
AcDbEntity
  8
0
  6
Continuous
 62
     7
100
AcDbLine
 10
-123.8000000000001
 20
223.3105516132634
 30
0.0
 11
-123.0500000000001
 21
223.3105516132634
 31
0.0
  0
LINE
  5
432
330
1F
100
AcDbEntity
  8
0
  6
Continuous
 62
     7
100
AcDbLine
 10
-122.5500000000001
 20
221.710551613264
 30
0.0
 11
-122.5500000000001
 21
221.310551613264
 31
0.0
  0
LINE
  5
433
330
1F
100
AcDbEntity
  8
0
  6
Continuous
 62
     7
100
AcDbLine
 10
-123.0500000000001
 20
223.3105516132634
 30
0.0
 11
-123.0500000000001
 21
221.310551613264
 31
0.0
  0
LINE
  5
434
330
1F
100
AcDbEntity
  8
0
  6
Continuous
 62
     7
100
AcDbLine
 10
-123.0500000000001
 20
221.310551613264
 30
0.0
 11
-122.5500000000001
 21
221.310551613264
 31
0.0
  0
LINE
  5
435
330
1F
100
AcDbEntity
  8
0
  6
Continuous
 62
     7
100
AcDbLine
 10
-106.5500000000001
 20
221.310551613264
 30
0.0
 11
-106.0500000000001
 21
221.310551613264
 31
0.0
  0
LINE
  5
436
330
1F
100
AcDbEntity
  8
0
  6
Continuous
 62
     7
100
AcDbLine
 10
-122.5500000000001
 20
221.310551613264
 30
0.0
 11
-106.5500000000001
 21
221.310551613264
 31
0.0
  0
LINE
  5
437
330
1F
100
AcDbEntity
  8
0
  6
Continuous
 62
     7
100
AcDbLine
 10
-143.8500000000001
 20
245.010551613264
 30
0.0
 11
-143.8500000000001
 21
243.010551613264
 31
0.0
  0
LINE
  5
438
330
1F
100
AcDbEntity
  8
0
  6
Continuous
 62
     7
100
AcDbLine
 10
-129.1500000000001
 20
245.010551613264
 30
0.0
 11
-129.1500000000001
 21
243.010551613264
 31
0.0
  0
LINE
  5
439
330
1F
100
AcDbEntity
  8
0
  6
Continuous
 62
     7
100
AcDbLine
 10
-106.25
 20
245.0105516132643
 30
0.0
 11
-114.4500000000001
 21
245.010551613264
 31
0.0
  0
LINE
  5
43A
330
1F
100
AcDbEntity
  8
0
  6
Continuous
 62
     7
100
AcDbLine
 10
-120.9500000000001
 20
243.010551613264
 30
0.0
 11
-120.9500000000001
 21
245.0105516132639
 31
0.0
  0
LINE
  5
43B
330
1F
100
AcDbEntity
  8
0
  6
Continuous
 62
     7
100
AcDbLine
 10
-114.4500000000001
 20
245.010551613264
 30
0.0
 11
-114.4500000000001
 21
243.010551613264
 31
0.0
  0
LINE
  5
43C
330
1F
100
AcDbEntity
  8
0
  6
Continuous
 62
     7
100
AcDbLine
 10
-134.4500000000001
 20
241.0105516132641
 30
0.0
 11
-134.4500000000001
 21
243.0105516132642
 31
0.0
  0
LINE
  5
43D
330
1F
100
AcDbEntity
  8
0
  6
Continuous
 62
     7
100
AcDbLine
 10
-130.3500000000001
 20
241.0105516132641
 30
0.0
 11
-134.4500000000001
 21
241.0105516132641
 31
0.0
  0
LINE
  5
43E
330
1F
100
AcDbEntity
  8
0
  6
Continuous
 62
     7
100
AcDbLine
 10
-130.3500000000001
 20
243.0105516132642
 30
0.0
 11
-130.3500000000001
 21
241.0105516132641
 31
0.0
  0
LINE
  5
43F
330
1F
100
AcDbEntity
  8
0
  6
Continuous
 62
     7
100
AcDbLine
 10
-119.7500000000001
 20
241.010551613264
 30
0.0
 11
-119.7500000000001
 21
243.0105516132642
 31
0.0
  0
LINE
  5
440
330
1F
100
AcDbEntity
  8
0
  6
Continuous
 62
     7
100
AcDbLine
 10
-115.65
 20
241.010551613264
 30
0.0
 11
-119.7500000000001
 21
241.010551613264
 31
0.0
  0
LINE
  5
441
330
1F
100
AcDbEntity
  8
0
  6
Continuous
 62
     7
100
AcDbLine
 10
-115.65
 20
243.0105516132642
 30
0.0
 11
-115.65
 21
241.010551613264
 31
0.0
  0
LINE
  5
442
330
1F
100
AcDbEntity
  8
0
  6
Continuous
 62
     7
100
AcDbLine
 10
-105.0500000000001
 20
241.0105516132639
 30
0.0
 11
-105.0500000000001
 21
243.0105516132642
 31
0.0
  0
LINE
  5
443
330
1F
100
AcDbEntity
  8
0
  6
Continuous
 62
     7
100
AcDbLine
 10
-113.45
 20
241.5105516132639
 30
0.0
 11
-107.0500000000001
 21
241.5105516132639
 31
0.0
  0
LINE
  5
444
330
1F
100
AcDbEntity
  8
0
  6
Continuous
 62
     7
100
AcDbLine
 10
-124.3000000000001
 20
241.5105516132639
 30
0.0
 11
-121.95
 21
241.5105516132639
 31
0.0
  0
LINE
  5
445
330
1F
100
AcDbEntity
  8
0
  6
Continuous
 62
     7
100
AcDbLine
 10
-135.6500000000001
 20
243.010551613264
 30
0.0
 11
-134.4500000000001
 21
243.0105516132642
 31
0.0
  0
LINE
  5
446
330
1F
100
AcDbEntity
  8
0
  6
Continuous
 62
     7
100
AcDbLine
 10
-130.3500000000001
 20
243.0105516132642
 30
0.0
 11
-129.1500000000001
 21
243.010551613264
 31
0.0
  0
LINE
  5
447
330
1F
100
AcDbEntity
  8
0
  6
Continuous
 62
     7
100
AcDbLine
 10
-120.9500000000001
 20
243.010551613264
 30
0.0
 11
-119.7500000000001
 21
243.0105516132642
 31
0.0
  0
LINE
  5
448
330
1F
100
AcDbEntity
  8
0
  6
Continuous
 62
     7
100
AcDbLine
 10
-115.65
 20
243.0105516132642
 30
0.0
 11
-114.4500000000001
 21
243.010551613264
 31
0.0
  0
LINE
  5
449
330
1F
100
AcDbEntity
  8
0
  6
Continuous
 62
     7
100
AcDbLine
 10
-106.2500000000001
 20
243.010551613264
 30
0.0
 11
-105.0500000000001
 21
243.0105516132642
 31
0.0
  0
LINE
  5
44A
330
1F
100
AcDbEntity
  8
0
  6
Continuous
 62
     7
100
AcDbLine
 10
-103.0
 20
243.0105516132642
 30
0.0
 11
-105.0500000000001
 21
243.0105516132642
 31
0.0
  0
LINE
  5
44B
330
1F
100
AcDbEntity
  8
0
  6
Continuous
 62
     7
100
AcDbLine
 10
-145.0500000000001
 20
243.0105516132642
 30
0.0
 11
-147.1
 21
243.0105516132642
 31
0.0
  0
LINE
  5
44C
330
1F
100
AcDbEntity
  8
0
  6
Continuous
 62
     7
100
AcDbLine
 10
-130.3500000000001
 20
243.0105516132642
 30
0.0
 11
-134.4500000000001
 21
243.0105516132642
 31
0.0
  0
LINE
  5
44D
330
1F
100
AcDbEntity
  8
0
  6
Continuous
 62
     7
100
AcDbLine
 10
-120.9500000000001
 20
245.0105516132639
 30
0.0
 11
-129.1500000000001
 21
245.010551613264
 31
0.0
  0
LINE
  5
44E
330
1F
100
AcDbEntity
  8
0
  6
Continuous
 62
     7
100
AcDbLine
 10
-135.6500000000001
 20
243.010551613264
 30
0.0
 11
-135.6500000000001
 21
245.010551613264
 31
0.0
  0
LINE
  5
44F
330
1F
100
AcDbEntity
  8
0
  6
Continuous
 62
     7
100
AcDbLine
 10
-143.8500000000001
 20
245.010551613264
 30
0.0
 11
-135.6500000000001
 21
245.010551613264
 31
0.0
  0
LINE
  5
450
330
1F
100
AcDbEntity
  8
0
  6
Continuous
 62
     7
100
AcDbLine
 10
-106.2500000000001
 20
243.010551613264
 30
0.0
 11
-106.25
 21
245.0105516132643
 31
0.0
  0
LINE
  5
451
330
1F
100
AcDbEntity
  8
0
  6
Continuous
 62
     7
100
AcDbLine
 10
-102.1
 20
239.1466144978408
 30
0.0
 11
-102.1
 21
238.5311107503112
 31
0.0
  0
LINE
  5
452
330
1F
100
AcDbEntity
  8
0
  6
Continuous
 62
     7
100
AcDbLine
 10
-102.0999999999999
 20
237.4899924762173
 30
0.0
 11
-102.1
 21
236.8744887286874
 31
0.0
  0
LINE
  5
453
330
1F
100
AcDbEntity
  8
0
  6
Continuous
 62
     7
100
AcDbLine
 10
-102.1
 20
219.1466144978404
 30
0.0
 11
-102.1
 21
218.5311107503112
 31
0.0
  0
LINE
  5
454
330
1F
100
AcDbEntity
  8
0
  6
Continuous
 62
     7
100
AcDbLine
 10
-102.1
 20
217.4899924762167
 30
0.0
 11
-102.1
 21
216.8744887286874
 31
0.0
  0
LINE
  5
455
330
1F
100
AcDbEntity
  8
0
  6
Continuous
 62
     7
100
AcDbLine
 10
-102.7154763476518
 20
239.1735502789411
 30
0.0
 11
-102.3845236523475
 21
239.3278760552481
 31
0.0
  0
LINE
  5
456
330
1F
100
AcDbEntity
  8
0
  6
Continuous
 62
     7
100
AcDbLine
 10
-102.3845236523482
 20
236.6932271712805
 30
0.0
 11
-102.7154763476519
 21
236.8475529475873
 31
0.0
  0
LINE
  5
457
330
1F
100
AcDbEntity
  8
0
  6
Continuous
 62
     7
100
AcDbLine
 10
-102.715476347652
 20
219.1735502789405
 30
0.0
 11
-102.3845236523484
 21
219.3278760552476
 31
0.0
  0
LINE
  5
458
330
1F
100
AcDbEntity
  8
0
  6
Continuous
 62
     7
100
AcDbLine
 10
-102.3845236523482
 20
216.6932271712801
 30
0.0
 11
-102.7154763476519
 21
216.8475529475873
 31
0.0
  0
LINE
  5
459
330
1F
100
AcDbEntity
  8
0
  6
Continuous
 62
     7
100
AcDbLine
 10
-103.0
 20
241.010551613264
 30
0.0
 11
-105.0500000000001
 21
241.0105516132639
 31
0.0
  0
LINE
  5
45A
330
1F
100
AcDbEntity
  8
0
  6
Continuous
 62
     7
100
AcDbLine
 10
-103.0
 20
241.010551613264
 30
0.0
 11
-103.0
 21
239.3548118363479
 31
0.0
  0
LINE
  5
45B
330
1F
100
AcDbEntity
  8
0
  6
Continuous
 62
     7
100
AcDbLine
 10
-103.0000000000001
 20
236.6662913901799
 30
0.0
 11
-103.0000000000001
 21
219.3548118363479
 31
0.0
  0
LINE
  5
45C
330
1F
100
AcDbEntity
  8
0
  6
Continuous
 62
     7
100
AcDbLine
 10
-103.0000000000001
 20
216.6662913901799
 30
0.0
 11
-103.0000000000001
 21
215.010551613264
 31
0.0
  0
LINE
  5
45D
330
1F
100
AcDbEntity
  8
0
  6
Continuous
 62
     7
100
AcDbLine
 10
-106.5500000000001
 20
237.1105516132636
 30
0.0
 11
-107.1000000000001
 21
237.1105516132638
 31
0.0
  0
LINE
  5
45E
330
1F
100
AcDbEntity
  8
0
  6
Continuous
 62
     7
100
AcDbLine
 10
-106.5500000000001
 20
241.0105516132639
 30
0.0
 11
-106.5500000000001
 21
240.0105516132638
 31
0.0
  0
LINE
  5
45F
330
1F
100
AcDbEntity
  8
0
  6
Continuous
 62
     7
100
AcDbLine
 10
-106.5500000000001
 20
235.3105516132637
 30
0.0
 11
-104.3000000000001
 21
235.3105516132637
 31
0.0
  0
LINE
  5
460
330
1F
100
AcDbEntity
  8
0
  6
Continuous
 62
     7
100
AcDbLine
 10
-105.7500000000001
 20
237.110551613264
 30
0.0
 11
-106.5500000000001
 21
237.1105516132636
 31
0.0
  0
LINE
  5
461
330
1F
100
AcDbEntity
  8
0
  6
Continuous
 62
     7
100
AcDbLine
 10
-104.3000000000001
 20
237.6105516132638
 30
0.0
 11
-107.1000000000001
 21
237.6105516132638
 31
0.0
  0
LINE
  5
462
330
1F
100
AcDbEntity
  8
0
  6
Continuous
 62
     7
100
AcDbLine
 10
-104.85
 20
237.110551613264
 30
0.0
 11
-105.0000000000001
 21
237.1105516132641
 31
0.0
  0
LINE
  5
463
330
1F
100
AcDbEntity
  8
0
  6
Continuous
 62
     7
100
AcDbLine
 10
-104.35
 20
237.110551613264
 30
0.0
 11
-104.85
 21
237.110551613264
 31
0.0
  0
LINE
  5
464
330
1F
100
AcDbEntity
  8
0
  6
Continuous
 62
     7
100
AcDbLine
 10
-105.0000000000001
 20
237.1105516132641
 30
0.0
 11
-105.7500000000001
 21
237.110551613264
 31
0.0
  0
LINE
  5
465
330
1F
100
AcDbEntity
  8
0
  6
Continuous
 62
     7
100
AcDbLine
 10
-104.5000000000001
 20
233.8105516132635
 30
0.0
 11
-104.3000000000001
 21
233.8105516132635
 31
0.0
  0
LINE
  5
466
330
1F
100
AcDbEntity
  8
0
  6
Continuous
 62
     7
100
AcDbLine
 10
-104.3000000000001
 20
235.3105516132637
 30
0.0
 11
-104.3000000000001
 21
235.4605516132638
 31
0.0
  0
LINE
  5
467
330
1F
100
AcDbEntity
  8
0
  6
Continuous
 62
     7
100
AcDbLine
 10
-104.3000000000001
 20
234.8105516132637
 30
0.0
 11
-104.3000000000001
 21
235.3105516132637
 31
0.0
  0
LINE
  5
468
330
1F
100
AcDbEntity
  8
0
  6
Continuous
 62
     7
100
AcDbLine
 10
-104.3000000000001
 20
233.8105516132635
 30
0.0
 11
-104.3000000000001
 21
234.8105516132637
 31
0.0
  0
LINE
  5
469
330
1F
100
AcDbEntity
  8
0
  6
Continuous
 62
     7
100
AcDbLine
 10
-104.3000000000001
 20
239.5105516132638
 30
0.0
 11
-106.0500000000001
 21
239.5105516132638
 31
0.0
  0
LINE
  5
46A
330
1F
100
AcDbEntity
  8
0
  6
Continuous
 62
     7
100
AcDbLine
 10
-106.0500000000001
 20
234.8105516132636
 30
0.0
 11
-104.3000000000001
 21
234.8105516132637
 31
0.0
  0
LINE
  5
46B
330
1F
100
AcDbEntity
  8
0
  6
Continuous
 62
     7
100
AcDbLine
 10
-104.3000000000001
 20
236.960551613264
 30
0.0
 11
-104.3000000000001
 21
237.1105516132638
 31
0.0
  0
LINE
  5
46C
330
1F
100
AcDbEntity
  8
0
  6
Continuous
 62
     7
100
AcDbLine
 10
-104.3000000000001
 20
235.4605516132638
 30
0.0
 11
-104.3000000000001
 21
236.960551613264
 31
0.0
  0
LINE
  5
46D
330
1F
100
AcDbEntity
  8
0
  6
Continuous
 62
     7
100
AcDbLine
 10
-104.8000000000001
 20
235.4605516132638
 30
0.0
 11
-104.8000000000001
 21
236.960551613264
 31
0.0
  0
LINE
  5
46E
330
1F
100
AcDbEntity
  8
0
  6
Continuous
 62
     7
100
AcDbLine
 10
-104.8000000000001
 20
235.4605516132638
 30
0.0
 11
-104.3000000000001
 21
235.4605516132638
 31
0.0
  0
LINE
  5
46F
330
1F
100
AcDbEntity
  8
0
  6
Continuous
 62
     7
100
AcDbLine
 10
-104.3000000000001
 20
237.1105516132638
 30
0.0
 11
-104.35
 21
237.110551613264
 31
0.0
  0
LINE
  5
470
330
1F
100
AcDbEntity
  8
0
  6
Continuous
 62
     7
100
AcDbLine
 10
-104.3000000000001
 20
236.960551613264
 30
0.0
 11
-104.8000000000001
 21
236.960551613264
 31
0.0
  0
LINE
  5
471
330
1F
100
AcDbEntity
  8
0
  6
Continuous
 62
     7
100
AcDbLine
 10
-103.0
 20
241.010551613264
 30
0.0
 11
-103.0
 21
243.0105516132642
 31
0.0
  0
LINE
  5
472
330
1F
100
AcDbEntity
  8
0
  6
Continuous
 62
     7
100
AcDbLine
 10
-104.3000000000001
 20
237.1105516132638
 30
0.0
 11
-104.3000000000001
 21
237.6105516132638
 31
0.0
  0
LINE
  5
473
330
1F
100
AcDbEntity
  8
0
  6
Continuous
 62
     7
100
AcDbLine
 10
-104.3000000000001
 20
237.6105516132638
 30
0.0
 11
-104.3000000000001
 21
239.5105516132638
 31
0.0
  0
LINE
  5
474
330
1F
100
AcDbEntity
  8
0
  6
Continuous
 62
     7
100
AcDbLine
 10
-106.0500000000001
 20
223.310551613264
 30
0.0
 11
-106.0500000000001
 21
233.8105516132636
 31
0.0
  0
LINE
  5
475
330
1F
100
AcDbEntity
  8
0
  6
Continuous
 62
     7
100
AcDbLine
 10
-104.5000000000001
 20
233.8105516132635
 30
0.0
 11
-104.5000000000001
 21
221.8105516132636
 31
0.0
  0
LINE
  5
476
330
1F
100
AcDbEntity
  8
0
  6
Continuous
 62
     7
100
AcDbLine
 10
-105.0500000000001
 20
215.0105516132639
 30
0.0
 11
-103.0000000000001
 21
215.010551613264
 31
0.0
  0
LINE
  5
477
330
1F
100
AcDbEntity
  8
0
  6
Continuous
 62
     7
100
AcDbLine
 10
-102.8432879227868
 20
217.8152924118398
 30
0.0
 11
-102.2567120772117
 21
217.6852516776405
 31
0.0
  0
LINE
  5
478
330
1F
100
AcDbEntity
  8
0
  6
Continuous
 62
     7
100
AcDbLine
 10
-102.2567120772126
 20
218.3358515488872
 30
0.0
 11
-102.8432879227875
 21
218.2058108146886
 31
0.0
  0
LINE
  5
479
330
1F
100
AcDbEntity
  8
0
  6
Continuous
 62
     7
100
AcDbLine
 10
-102.8432879227877
 20
237.8152924118404
 30
0.0
 11
-102.2567120772124
 21
237.6852516776411
 31
0.0
  0
LINE
  5
47A
330
1F
100
AcDbEntity
  8
0
  6
Continuous
 62
     7
100
AcDbLine
 10
-102.2567120772116
 20
238.3358515488874
 30
0.0
 11
-102.843287922787
 21
238.2058108146881
 31
0.0
  0
LINE
  5
47B
330
1F
100
AcDbEntity
  8
0
  6
Continuous
 62
     7
100
AcDbLine
 10
-113.95
 20
240.0105516132638
 30
0.0
 11
-113.95
 21
241.0105516132639
 31
0.0
  0
LINE
  5
47C
330
1F
100
AcDbEntity
  8
0
  6
Continuous
 62
     7
100
AcDbLine
 10
-124.8000000000001
 20
241.0105516132639
 30
0.0
 11
-124.8000000000001
 21
237.6105516132638
 31
0.0
  0
LINE
  5
47D
330
1F
100
AcDbEntity
  8
0
  6
Continuous
 62
     7
100
AcDbLine
 10
-121.45
 20
241.0105516132639
 30
0.0
 11
-121.45
 21
240.0105516132639
 31
0.0
  0
LINE
  5
47E
330
1F
100
AcDbEntity
  8
0
  6
Continuous
 62
     7
100
AcDbLine
 10
-114.45
 20
239.5105516132638
 30
0.0
 11
-115.8000000000001
 21
239.5105516132638
 31
0.0
  0
LINE
  5
47F
330
1F
100
AcDbEntity
  8
0
  6
Continuous
 62
     7
100
AcDbLine
 10
-115.8000000000001
 20
239.5105516132638
 30
0.0
 11
-120.9500000000001
 21
239.5105516132639
 31
0.0
  0
LINE
  5
480
330
1F
100
AcDbEntity
  8
0
  6
Continuous
 62
     7
100
AcDbLine
 10
-107.1000000000001
 20
237.6105516132638
 30
0.0
 11
-107.1000000000001
 21
239.010551613264
 31
0.0
  0
LINE
  5
481
330
1F
100
AcDbEntity
  8
0
  6
Continuous
 62
     7
100
AcDbLine
 10
-107.6000000000001
 20
239.510551613264
 30
0.0
 11
-113.3
 21
239.5105516132639
 31
0.0
  0
LINE
  5
482
330
1F
100
AcDbEntity
  8
0
  6
Continuous
 62
     7
100
AcDbLine
 10
-113.8
 20
239.0105516132639
 30
0.0
 11
-113.8
 21
237.6105516132642
 31
0.0
  0
LINE
  5
483
330
1F
100
AcDbEntity
  8
0
  6
Continuous
 62
     7
100
AcDbLine
 10
-115.3000000000001
 20
237.6105516132642
 30
0.0
 11
-115.3000000000001
 21
239.0105516132639
 31
0.0
  0
LINE
  5
484
330
1F
100
AcDbEntity
  8
0
  6
Continuous
 62
     7
100
AcDbLine
 10
-107.1000000000001
 20
237.6105516132638
 30
0.0
 11
-107.1000000000001
 21
237.1105516132638
 31
0.0
  0
LINE
  5
485
330
1F
100
AcDbEntity
  8
0
  6
Continuous
 62
     7
100
AcDbLine
 10
-113.8
 20
237.6105516132642
 30
0.0
 11
-115.3000000000001
 21
237.6105516132642
 31
0.0
  0
LINE
  5
486
330
1F
100
AcDbEntity
  8
0
  6
Continuous
 62
     7
100
AcDbLine
 10
-122.5500000000001
 20
237.6105516132638
 30
0.0
 11
-122.5500000000001
 21
237.1105516132636
 31
0.0
  0
LINE
  5
487
330
1F
100
AcDbEntity
  8
0
  6
Continuous
 62
     7
100
AcDbLine
 10
-115.3000000000001
 20
237.6105516132642
 30
0.0
 11
-115.3000000000001
 21
237.1105516132642
 31
0.0
  0
LINE
  5
488
330
1F
100
AcDbEntity
  8
0
  6
Continuous
 62
     7
100
AcDbLine
 10
-113.8
 20
237.1105516132642
 30
0.0
 11
-113.8
 21
237.6105516132642
 31
0.0
  0
LINE
  5
489
330
1F
100
AcDbEntity
  8
0
  6
Continuous
 62
     7
100
AcDbLine
 10
-113.8
 20
237.1105516132642
 30
0.0
 11
-115.3000000000001
 21
237.1105516132642
 31
0.0
  0
LINE
  5
48A
330
1F
100
AcDbEntity
  8
0
  6
Continuous
 62
     7
100
AcDbLine
 10
-123.35
 20
237.110551613264
 30
0.0
 11
-122.5500000000001
 21
237.1105516132636
 31
0.0
  0
LINE
  5
48B
330
1F
100
AcDbEntity
  8
0
  6
Continuous
 62
     7
100
AcDbLine
 10
-123.0500000000001
 20
234.8105516132639
 30
0.0
 11
-124.8000000000001
 21
234.8105516132639
 31
0.0
  0
LINE
  5
48C
330
1F
100
AcDbEntity
  8
0
  6
Continuous
 62
     7
100
AcDbLine
 10
-106.0500000000001
 20
233.8105516132636
 30
0.0
 11
-106.5500000000001
 21
233.8105516132636
 31
0.0
  0
LINE
  5
48D
330
1F
100
AcDbEntity
  8
0
  6
Continuous
 62
     7
100
AcDbLine
 10
-122.5500000000001
 20
235.3105516132639
 30
0.0
 11
-124.8000000000001
 21
235.3105516132639
 31
0.0
  0
LINE
  5
48E
330
1F
100
AcDbEntity
  8
0
  6
Continuous
 62
     7
100
AcDbLine
 10
-124.8000000000001
 20
235.4605516132638
 30
0.0
 11
-124.3000000000001
 21
235.4605516132638
 31
0.0
  0
LINE
  5
48F
330
1F
100
AcDbEntity
  8
0
  6
Continuous
 62
     7
100
AcDbLine
 10
-106.5500000000001
 20
235.010551613264
 30
0.0
 11
-106.5500000000001
 21
235.3105516132637
 31
0.0
  0
LINE
  5
490
330
1F
100
AcDbEntity
  8
0
  6
Continuous
 62
     7
100
AcDbLine
 10
-106.5500000000001
 20
234.510551613264
 30
0.0
 11
-106.5500000000001
 21
235.010551613264
 31
0.0
  0
LINE
  5
491
330
1F
100
AcDbEntity
  8
0
  6
Continuous
 62
     7
100
AcDbLine
 10
-106.5500000000001
 20
233.8105516132636
 30
0.0
 11
-106.5500000000001
 21
234.510551613264
 31
0.0
  0
LINE
  5
492
330
1F
100
AcDbEntity
  8
0
  6
Continuous
 62
     7
100
AcDbLine
 10
-122.5500000000001
 20
235.3105516132639
 30
0.0
 11
-122.5500000000001
 21
235.010551613264
 31
0.0
  0
LINE
  5
493
330
1F
100
AcDbEntity
  8
0
  6
Continuous
 62
     7
100
AcDbLine
 10
-122.5500000000001
 20
235.3105516132639
 30
0.0
 11
-122.5500000000001
 21
235.510551613264
 31
0.0
  0
LINE
  5
494
330
1F
100
AcDbEntity
  8
0
  6
Continuous
 62
     7
100
AcDbLine
 10
-106.5500000000001
 20
235.510551613264
 30
0.0
 11
-106.5500000000001
 21
235.3105516132637
 31
0.0
  0
LINE
  5
495
330
1F
100
AcDbEntity
  8
0
  6
Continuous
 62
     7
100
AcDbLine
 10
-122.5500000000001
 20
235.010551613264
 30
0.0
 11
-122.5500000000001
 21
234.510551613264
 31
0.0
  0
LINE
  5
496
330
1F
100
AcDbEntity
  8
0
  6
Continuous
 62
     7
100
AcDbLine
 10
-122.5500000000001
 20
234.510551613264
 30
0.0
 11
-122.5500000000001
 21
233.8105516132639
 31
0.0
  0
LINE
  5
497
330
1F
100
AcDbEntity
  8
0
  6
Continuous
 62
     7
100
AcDbLine
 10
-124.3000000000001
 20
236.960551613264
 30
0.0
 11
-124.3000000000001
 21
235.4605516132638
 31
0.0
  0
LINE
  5
498
330
1F
100
AcDbEntity
  8
0
  6
Continuous
 62
     7
100
AcDbLine
 10
-122.5500000000001
 20
233.8105516132639
 30
0.0
 11
-123.0500000000001
 21
233.8105516132639
 31
0.0
  0
LINE
  5
499
330
1F
100
AcDbEntity
  8
0
  6
Continuous
 62
     7
100
AcDbLine
 10
-123.0500000000001
 20
234.8105516132639
 30
0.0
 11
-123.0500000000001
 21
233.8105516132639
 31
0.0
  0
LINE
  5
49A
330
1F
100
AcDbEntity
  8
0
  6
Continuous
 62
     7
100
AcDbLine
 10
-124.3000000000001
 20
233.8105516132637
 30
0.0
 11
-123.0500000000001
 21
233.8105516132639
 31
0.0
  0
LINE
  5
49B
330
1F
100
AcDbEntity
  8
0
  6
Continuous
 62
     7
100
AcDbLine
 10
-106.0500000000001
 20
233.8105516132636
 30
0.0
 11
-106.0500000000001
 21
234.8105516132636
 31
0.0
  0
LINE
  5
49C
330
1F
100
AcDbEntity
  8
0
  6
Continuous
 62
     7
100
AcDbLine
 10
-106.5500000000001
 20
235.3105516132637
 30
0.0
 11
-106.0500000000001
 21
234.8105516132636
 31
0.0
  0
LINE
  5
49D
330
1F
100
AcDbEntity
  8
0
  6
Continuous
 62
     7
100
AcDbLine
 10
-123.0500000000001
 20
234.8105516132639
 30
0.0
 11
-122.5500000000001
 21
235.3105516132639
 31
0.0
  0
LINE
  5
49E
330
1F
100
AcDbEntity
  8
0
  6
Continuous
 62
     7
100
AcDbLine
 10
-107.2500000000001
 20
211.0105516132641
 30
0.0
 11
-107.25
 21
213.0105516132645
 31
0.0
  0
LINE
  5
49F
330
1F
100
AcDbEntity
  8
0
  6
Continuous
 62
     7
100
AcDbLine
 10
-113.45
 20
213.0105516132645
 30
0.0
 11
-113.45
 21
211.0105516132645
 31
0.0
  0
LINE
  5
4A0
330
1F
100
AcDbEntity
  8
0
  6
Continuous
 62
     7
100
AcDbLine
 10
-113.45
 20
213.0105516132645
 30
0.0
 11
-115.65
 21
213.0105516132643
 31
0.0
  0
LINE
  5
4A1
330
1F
100
AcDbEntity
  8
0
  6
Continuous
 62
     7
100
AcDbLine
 10
-115.65
 20
215.010551613264
 30
0.0
 11
-115.65
 21
213.0105516132643
 31
0.0
  0
LINE
  5
4A2
330
1F
100
AcDbEntity
  8
0
  6
Continuous
 62
     7
100
AcDbLine
 10
-106.5500000000001
 20
221.310551613264
 30
0.0
 11
-106.5500000000001
 21
221.710551613264
 31
0.0
  0
LINE
  5
4A3
330
1F
100
AcDbEntity
  8
0
  6
Continuous
 62
     7
100
AcDbLine
 10
-106.5500000000001
 20
221.710551613264
 30
0.0
 11
-106.5500000000001
 21
223.310551613264
 31
0.0
  0
LINE
  5
4A4
330
1F
100
AcDbEntity
  8
0
  6
Continuous
 62
     7
100
AcDbLine
 10
-106.5500000000001
 20
223.310551613264
 30
0.0
 11
-106.0500000000001
 21
223.310551613264
 31
0.0
  0
LINE
  5
4A5
330
1F
100
AcDbEntity
  8
0
  6
Continuous
 62
     7
100
AcDbLine
 10
-105.0500000000001
 20
213.0105516132643
 30
0.0
 11
-103.0000000000001
 21
213.0105516132643
 31
0.0
  0
LINE
  5
4A6
330
1F
100
AcDbEntity
  8
0
  6
Continuous
 62
     7
100
AcDbLine
 10
-103.0000000000001
 20
213.0105516132643
 30
0.0
 11
-103.0000000000001
 21
215.010551613264
 31
0.0
  0
LINE
  5
4A7
330
1F
100
AcDbEntity
  8
0
  6
Continuous
 62
     7
100
AcDbLine
 10
-106.0500000000001
 20
221.310551613264
 30
0.0
 11
-106.0500000000001
 21
223.310551613264
 31
0.0
  0
LINE
  5
4A8
330
1F
100
AcDbEntity
  8
0
  6
Continuous
 62
     7
100
AcDbLine
 10
-106.0500000000001
 20
221.310551613264
 30
0.0
 11
-105.0000000000001
 21
221.3105516132636
 31
0.0
  0
LINE
  5
4A9
330
1F
100
AcDbEntity
  8
0
  6
Continuous
 62
     7
100
AcDbLine
 10
-105.0500000000001
 20
213.0105516132643
 30
0.0
 11
-105.0500000000001
 21
215.0105516132639
 31
0.0
  0
LINE
  5
4AA
330
1F
100
AcDbEntity
  8
0
  6
Continuous
 62
     7
100
AcDbLine
 10
-105.0500000000001
 20
213.0105516132643
 30
0.0
 11
-107.25
 21
213.0105516132645
 31
0.0
  0
LINE
  5
4AB
330
1F
100
AcDbEntity
  8
0
  6
Continuous
 62
     7
100
AcDbLine
 10
-107.2500000000001
 20
211.0105516132641
 30
0.0
 11
-113.45
 21
211.0105516132645
 31
0.0
  0
LINE
  5
4AC
330
1F
100
AcDbEntity
  8
0
  6
DASHED
 62
     7
100
AcDbLine
 10
-122.5500000000001
 20
233.8105516132639
 30
0.0
 11
-122.5500000000001
 21
223.3105516132634
 31
0.0
  0
LINE
  5
4AD
330
1F
100
AcDbEntity
  8
0
  6
DASHED
 62
     7
100
AcDbLine
 10
-120.5500000000001
 20
224.560551613264
 30
0.0
 11
-120.5500000000001
 21
231.460551613264
 31
0.0
  0
LINE
  5
4AE
330
1F
100
AcDbEntity
  8
0
  6
DASHED
 62
     7
100
AcDbLine
 10
-116.5500000000001
 20
233.410551613264
 30
0.0
 11
-116.5500000000001
 21
234.710551613264
 31
0.0
  0
LINE
  5
4AF
330
1F
100
AcDbEntity
  8
0
  6
DASHED
 62
     7
100
AcDbLine
 10
-120.65
 20
238.810551613264
 30
0.0
 11
-120.65
 21
237.110551613264
 31
0.0
  0
LINE
  5
4B0
330
1F
100
AcDbEntity
  8
0
  6
DASHED
 62
     7
100
AcDbLine
 10
-120.65
 20
237.110551613264
 30
0.0
 11
-121.9
 21
237.110551613264
 31
0.0
  0
LINE
  5
4B1
330
1F
100
AcDbEntity
  8
0
  6
DASHED
 62
     7
100
AcDbLine
 10
-120.65
 20
238.810551613264
 30
0.0
 11
-121.6002441327956
 21
238.810551613264
 31
0.0
  0
LINE
  5
4B2
330
1F
100
AcDbEntity
  8
0
  6
DASHED
 62
     7
100
AcDbLine
 10
-121.6002441327956
 20
238.810551613264
 30
0.0
 11
-121.9
 21
237.110551613264
 31
0.0
  0
LINE
  5
4B3
330
1F
100
AcDbEntity
  8
0
  6
DASHED
 62
     7
100
AcDbLine
 10
-124.3000000000001
 20
235.510551613264
 30
0.0
 11
-124.2500000000001
 21
235.510551613264
 31
0.0
  0
LINE
  5
4B4
330
1F
100
AcDbEntity
  8
0
  6
DASHED
 62
     7
100
AcDbLine
 10
-124.1
 20
235.510551613264
 30
0.0
 11
-124.2500000000001
 21
235.510551613264
 31
0.0
  0
LINE
  5
4B5
330
1F
100
AcDbEntity
  8
0
  6
DASHED
 62
     7
100
AcDbLine
 10
-122.5500000000001
 20
235.510551613264
 30
0.0
 11
-124.1
 21
235.510551613264
 31
0.0
  0
LINE
  5
4B6
330
1F
100
AcDbEntity
  8
0
  6
DASHED
 62
     7
100
AcDbLine
 10
-124.2500000000001
 20
235.510551613264
 30
0.0
 11
-124.2500000000001
 21
237.110551613264
 31
0.0
  0
LINE
  5
4B7
330
1F
100
AcDbEntity
  8
0
  6
DASHED
 62
     7
100
AcDbLine
 10
-124.1
 20
235.510551613264
 30
0.0
 11
-124.1
 21
237.1105516132641
 31
0.0
  0
LINE
  5
4B8
330
1F
100
AcDbEntity
  8
0
  6
DASHED
 62
     7
100
AcDbLine
 10
-122.5500000000001
 20
223.3105516132634
 30
0.0
 11
-122.5500000000001
 21
221.710551613264
 31
0.0
  0
LINE
  5
4B9
330
1F
100
AcDbEntity
  8
0
  6
DASHED
 62
     7
100
AcDbLine
 10
-124.7500000000001
 20
237.110551613264
 30
0.0
 11
-124.7500000000001
 21
236.960551613264
 31
0.0
  0
LINE
  5
4BA
330
1F
100
AcDbEntity
  8
0
  6
DASHED
 62
     7
100
AcDbLine
 10
-124.7500000000001
 20
237.110551613264
 30
0.0
 11
-124.2500000000001
 21
237.110551613264
 31
0.0
  0
LINE
  5
4BB
330
1F
100
AcDbEntity
  8
0
  6
DASHED
 62
     7
100
AcDbLine
 10
-124.2500000000001
 20
237.110551613264
 30
0.0
 11
-124.1
 21
237.1105516132641
 31
0.0
  0
LINE
  5
4BC
330
1F
100
AcDbEntity
  8
0
  6
DASHED
 62
     7
100
AcDbLine
 10
-124.1
 20
237.1105516132641
 30
0.0
 11
-123.35
 21
237.110551613264
 31
0.0
  0
LINE
  5
4BD
330
1F
100
AcDbEntity
  8
0
  6
DASHED
 62
     7
100
AcDbLine
 10
-108.5500000000001
 20
224.560551613264
 30
0.0
 11
-120.5500000000001
 21
224.560551613264
 31
0.0
  0
LINE
  5
4BE
330
1F
100
AcDbEntity
  8
0
  6
DASHED
 62
     7
100
AcDbLine
 10
-106.5500000000001
 20
221.710551613264
 30
0.0
 11
-122.5500000000001
 21
221.710551613264
 31
0.0
  0
LINE
  5
4BF
330
1F
100
AcDbEntity
  8
0
  6
DASHED
 62
     7
100
AcDbLine
 10
-108.5500000000001
 20
231.460551613264
 30
0.0
 11
-108.5500000000001
 21
224.560551613264
 31
0.0
  0
LINE
  5
4C0
330
1F
100
AcDbEntity
  8
0
  6
DASHED
 62
     7
100
AcDbLine
 10
-106.5500000000001
 20
237.1105516132636
 30
0.0
 11
-107.1000000000001
 21
237.1105516132638
 31
0.0
  0
LINE
  5
4C1
330
1F
100
AcDbEntity
  8
0
  6
DASHED
 62
     7
100
AcDbLine
 10
-105.0000000000001
 20
235.510551613264
 30
0.0
 11
-106.5500000000001
 21
235.510551613264
 31
0.0
  0
LINE
  5
4C2
330
1F
100
AcDbEntity
  8
0
  6
DASHED
 62
     7
100
AcDbLine
 10
-105.7500000000001
 20
237.110551613264
 30
0.0
 11
-106.5500000000001
 21
237.1105516132636
 31
0.0
  0
LINE
  5
4C3
330
1F
100
AcDbEntity
  8
0
  6
DASHED
 62
     7
100
AcDbLine
 10
-104.8500000000001
 20
235.510551613264
 30
0.0
 11
-105.0000000000001
 21
235.510551613264
 31
0.0
  0
LINE
  5
4C4
330
1F
100
AcDbEntity
  8
0
  6
DASHED
 62
     7
100
AcDbLine
 10
-104.8500000000001
 20
235.510551613264
 30
0.0
 11
-104.8000000000001
 21
235.510551613264
 31
0.0
  0
LINE
  5
4C5
330
1F
100
AcDbEntity
  8
0
  6
DASHED
 62
     7
100
AcDbLine
 10
-104.85
 20
237.110551613264
 30
0.0
 11
-105.0000000000001
 21
237.1105516132641
 31
0.0
  0
LINE
  5
4C6
330
1F
100
AcDbEntity
  8
0
  6
DASHED
 62
     7
100
AcDbLine
 10
-104.35
 20
237.110551613264
 30
0.0
 11
-104.85
 21
237.110551613264
 31
0.0
  0
LINE
  5
4C7
330
1F
100
AcDbEntity
  8
0
  6
DASHED
 62
     7
100
AcDbLine
 10
-105.0000000000001
 20
237.1105516132641
 30
0.0
 11
-105.7500000000001
 21
237.110551613264
 31
0.0
  0
LINE
  5
4C8
330
1F
100
AcDbEntity
  8
0
  6
DASHED
 62
     7
100
AcDbLine
 10
-104.85
 20
237.110551613264
 30
0.0
 11
-104.8500000000001
 21
235.510551613264
 31
0.0
  0
LINE
  5
4C9
330
1F
100
AcDbEntity
  8
0
  6
DASHED
 62
     7
100
AcDbLine
 10
-105.0000000000001
 20
237.1105516132641
 30
0.0
 11
-105.0000000000001
 21
235.510551613264
 31
0.0
  0
LINE
  5
4CA
330
1F
100
AcDbEntity
  8
0
  6
DASHED
 62
     7
100
AcDbLine
 10
-104.35
 20
236.960551613264
 30
0.0
 11
-104.35
 21
237.110551613264
 31
0.0
  0
LINE
  5
4CB
330
1F
100
AcDbEntity
  8
0
  6
DASHED
 62
     7
100
AcDbLine
 10
-106.5500000000001
 20
233.8105516132636
 30
0.0
 11
-106.5500000000001
 21
223.310551613264
 31
0.0
  0
LINE
  5
4CC
330
1F
100
AcDbEntity
  8
0
  6
DASHED
 62
     7
100
AcDbLine
 10
-111.4
 20
231.460551613264
 30
0.0
 11
-108.5500000000001
 21
231.460551613264
 31
0.0
  0
LINE
  5
4CD
330
1F
100
AcDbEntity
  8
0
  6
DASHED
 62
     7
100
AcDbLine
 10
-117.7000000000001
 20
231.460551613264
 30
0.0
 11
-117.7000000000001
 21
233.410551613264
 31
0.0
  0
LINE
  5
4CE
330
1F
100
AcDbEntity
  8
0
  6
DASHED
 62
     7
100
AcDbLine
 10
-120.5500000000001
 20
231.460551613264
 30
0.0
 11
-117.7000000000001
 21
231.460551613264
 31
0.0
  0
LINE
  5
4CF
330
1F
100
AcDbEntity
  8
0
  6
DASHED
 62
     7
100
AcDbLine
 10
-111.4
 20
233.410551613264
 30
0.0
 11
-111.4
 21
231.460551613264
 31
0.0
  0
LINE
  5
4D0
330
1F
100
AcDbEntity
  8
0
  6
DASHED
 62
     7
100
AcDbLine
 10
-112.5500000000001
 20
234.710551613264
 30
0.0
 11
-112.5500000000001
 21
233.410551613264
 31
0.0
  0
LINE
  5
4D1
330
1F
100
AcDbEntity
  8
0
  6
DASHED
 62
     7
100
AcDbLine
 10
-117.7000000000001
 20
233.410551613264
 30
0.0
 11
-116.5500000000001
 21
233.410551613264
 31
0.0
  0
LINE
  5
4D2
330
1F
100
AcDbEntity
  8
0
  6
DASHED
 62
     7
100
AcDbLine
 10
-112.5500000000001
 20
233.410551613264
 30
0.0
 11
-111.4
 21
233.410551613264
 31
0.0
  0
LINE
  5
4D3
330
1F
100
AcDbEntity
  8
0
  6
DASHED
 62
     7
100
AcDbLine
 10
-119.7500000000001
 20
237.1105516132641
 30
0.0
 11
-119.7500000000001
 21
238.810551613264
 31
0.0
  0
LINE
  5
4D4
330
1F
100
AcDbEntity
  8
0
  6
DASHED
 62
     7
100
AcDbLine
 10
-118.7997558672045
 20
238.810551613264
 30
0.0
 11
-119.7500000000001
 21
238.810551613264
 31
0.0
  0
LINE
  5
4D5
330
1F
100
AcDbEntity
  8
0
  6
DASHED
 62
     7
100
AcDbLine
 10
-108.4500000000001
 20
237.1105516132641
 30
0.0
 11
-108.4500000000001
 21
238.810551613264
 31
0.0
  0
LINE
  5
4D6
330
1F
100
AcDbEntity
  8
0
  6
DASHED
 62
     7
100
AcDbLine
 10
-107.4997558672044
 20
238.810551613264
 30
0.0
 11
-108.4500000000001
 21
238.810551613264
 31
0.0
  0
LINE
  5
4D7
330
1F
100
AcDbEntity
  8
0
  6
DASHED
 62
     7
100
AcDbLine
 10
-109.35
 20
238.810551613264
 30
0.0
 11
-110.3002441327957
 21
238.810551613264
 31
0.0
  0
LINE
  5
4D8
330
1F
100
AcDbEntity
  8
0
  6
DASHED
 62
     7
100
AcDbLine
 10
-109.35
 20
238.810551613264
 30
0.0
 11
-109.35
 21
237.1105516132641
 31
0.0
  0
LINE
  5
4D9
330
1F
100
AcDbEntity
  8
0
  6
DASHED
 62
     7
100
AcDbLine
 10
-113.8
 20
237.1105516132642
 30
0.0
 11
-115.3000000000001
 21
237.1105516132642
 31
0.0
  0
LINE
  5
4DA
330
1F
100
AcDbEntity
  8
0
  6
DASHED
 62
     7
100
AcDbLine
 10
-115.3000000000001
 20
237.1105516132642
 30
0.0
 11
-118.5000000000001
 21
237.1105516132641
 31
0.0
  0
LINE
  5
4DB
330
1F
100
AcDbEntity
  8
0
  6
DASHED
 62
     7
100
AcDbLine
 10
-109.35
 20
237.1105516132641
 30
0.0
 11
-110.6000000000001
 21
237.1105516132641
 31
0.0
  0
LINE
  5
4DC
330
1F
100
AcDbEntity
  8
0
  6
DASHED
 62
     7
100
AcDbLine
 10
-110.6000000000001
 20
237.1105516132641
 30
0.0
 11
-113.8
 21
237.1105516132642
 31
0.0
  0
LINE
  5
4DD
330
1F
100
AcDbEntity
  8
0
  6
DASHED
 62
     7
100
AcDbLine
 10
-108.4500000000001
 20
237.1105516132641
 30
0.0
 11
-109.35
 21
237.1105516132641
 31
0.0
  0
LINE
  5
4DE
330
1F
100
AcDbEntity
  8
0
  6
DASHED
 62
     7
100
AcDbLine
 10
-107.1000000000001
 20
237.1105516132638
 30
0.0
 11
-107.2000000000001
 21
237.1105516132641
 31
0.0
  0
LINE
  5
4DF
330
1F
100
AcDbEntity
  8
0
  6
DASHED
 62
     7
100
AcDbLine
 10
-107.2000000000001
 20
237.1105516132641
 30
0.0
 11
-108.4500000000001
 21
237.1105516132641
 31
0.0
  0
LINE
  5
4E0
330
1F
100
AcDbEntity
  8
0
  6
DASHED
 62
     7
100
AcDbLine
 10
-119.7500000000001
 20
237.1105516132641
 30
0.0
 11
-120.65
 21
237.110551613264
 31
0.0
  0
LINE
  5
4E1
330
1F
100
AcDbEntity
  8
0
  6
DASHED
 62
     7
100
AcDbLine
 10
-121.9
 20
237.110551613264
 30
0.0
 11
-122.5500000000001
 21
237.1105516132636
 31
0.0
  0
LINE
  5
4E2
330
1F
100
AcDbEntity
  8
0
  6
DASHED
 62
     7
100
AcDbLine
 10
-118.5000000000001
 20
237.1105516132641
 30
0.0
 11
-119.7500000000001
 21
237.1105516132641
 31
0.0
  0
LINE
  5
4E3
330
1F
100
AcDbEntity
  8
0
  6
DASHED
 62
     7
100
AcDbLine
 10
-123.35
 20
237.110551613264
 30
0.0
 11
-122.5500000000001
 21
237.1105516132636
 31
0.0
  0
LINE
  5
4E4
330
1F
100
AcDbEntity
  8
0
  6
DASHED
 62
     7
100
AcDbLine
 10
-106.5500000000001
 20
235.010551613264
 30
0.0
 11
-106.5500000000001
 21
235.3105516132637
 31
0.0
  0
LINE
  5
4E5
330
1F
100
AcDbEntity
  8
0
  6
DASHED
 62
     7
100
AcDbLine
 10
-106.5500000000001
 20
234.510551613264
 30
0.0
 11
-106.5500000000001
 21
235.010551613264
 31
0.0
  0
LINE
  5
4E6
330
1F
100
AcDbEntity
  8
0
  6
DASHED
 62
     7
100
AcDbLine
 10
-106.5500000000001
 20
233.8105516132636
 30
0.0
 11
-106.5500000000001
 21
234.510551613264
 31
0.0
  0
LINE
  5
4E7
330
1F
100
AcDbEntity
  8
0
  6
DASHED
 62
     7
100
AcDbLine
 10
-122.5500000000001
 20
235.3105516132639
 30
0.0
 11
-122.5500000000001
 21
235.010551613264
 31
0.0
  0
LINE
  5
4E8
330
1F
100
AcDbEntity
  8
0
  6
DASHED
 62
     7
100
AcDbLine
 10
-122.5500000000001
 20
235.3105516132639
 30
0.0
 11
-122.5500000000001
 21
235.510551613264
 31
0.0
  0
LINE
  5
4E9
330
1F
100
AcDbEntity
  8
0
  6
DASHED
 62
     7
100
AcDbLine
 10
-106.5500000000001
 20
235.510551613264
 30
0.0
 11
-106.5500000000001
 21
235.3105516132637
 31
0.0
  0
LINE
  5
4EA
330
1F
100
AcDbEntity
  8
0
  6
DASHED
 62
     7
100
AcDbLine
 10
-122.5500000000001
 20
235.010551613264
 30
0.0
 11
-122.5500000000001
 21
234.510551613264
 31
0.0
  0
LINE
  5
4EB
330
1F
100
AcDbEntity
  8
0
  6
DASHED
 62
     7
100
AcDbLine
 10
-122.5500000000001
 20
234.510551613264
 30
0.0
 11
-122.5500000000001
 21
233.8105516132639
 31
0.0
  0
LINE
  5
4EC
330
1F
100
AcDbEntity
  8
0
  6
DASHED
 62
     7
100
AcDbLine
 10
-116.5500000000001
 20
234.710551613264
 30
0.0
 11
-112.5500000000001
 21
234.710551613264
 31
0.0
  0
LINE
  5
4ED
330
1F
100
AcDbEntity
  8
0
  6
DASHED
 62
     7
100
AcDbLine
 10
-106.5500000000001
 20
235.010551613264
 30
0.0
 11
-122.5500000000001
 21
235.010551613264
 31
0.0
  0
LINE
  5
4EE
330
1F
100
AcDbEntity
  8
0
  6
DASHED
 62
     7
100
AcDbLine
 10
-106.5500000000001
 20
235.510551613264
 30
0.0
 11
-122.5500000000001
 21
235.510551613264
 31
0.0
  0
LINE
  5
4EF
330
1F
100
AcDbEntity
  8
0
  6
DASHED
 62
     7
100
AcDbLine
 10
-110.3002441327957
 20
238.810551613264
 30
0.0
 11
-110.6000000000001
 21
237.1105516132641
 31
0.0
  0
LINE
  5
4F0
330
1F
100
AcDbEntity
  8
0
  6
DASHED
 62
     7
100
AcDbLine
 10
-118.7997558672045
 20
238.810551613264
 30
0.0
 11
-118.5000000000001
 21
237.1105516132641
 31
0.0
  0
LINE
  5
4F1
330
1F
100
AcDbEntity
  8
0
  6
DASHED
 62
     7
100
AcDbLine
 10
-107.4997558672044
 20
238.810551613264
 30
0.0
 11
-107.2000000000001
 21
237.1105516132641
 31
0.0
  0
LINE
  5
4F2
330
1F
100
AcDbEntity
  8
0
  6
DASHED
 62
     7
100
AcDbLine
 10
-106.5500000000001
 20
221.710551613264
 30
0.0
 11
-106.5500000000001
 21
223.310551613264
 31
0.0
  0
LINE
  5
4F3
330
1F
100
AcDbEntity
  8
0
  6
DASHED
 62
     7
100
AcDbLine
 10
-141.5500000000001
 20
231.460551613264
 30
0.0
 11
-129.5500000000001
 21
231.460551613264
 31
0.0
  0
LINE
  5
4F4
330
1F
100
AcDbEntity
  8
0
  6
DASHED
 62
     7
100
AcDbLine
 10
-143.5500000000001
 20
234.310551613264
 30
0.0
 11
-127.5500000000001
 21
234.310551613264
 31
0.0
  0
LINE
  5
4F5
330
1F
100
AcDbEntity
  8
0
  6
DASHED
 62
     7
100
AcDbLine
 10
-143.5500000000001
 20
221.010551613264
 30
0.0
 11
-127.5500000000001
 21
221.010551613264
 31
0.0
  0
LINE
  5
4F6
330
1F
100
AcDbEntity
  8
0
  6
DASHED
 62
     7
100
AcDbLine
 10
-143.5500000000001
 20
220.510551613264
 30
0.0
 11
-127.5500000000001
 21
220.510551613264
 31
0.0
  0
LINE
  5
4F7
330
1F
100
AcDbEntity
  8
0
  6
DASHED
 62
     7
100
AcDbLine
 10
-140.7500000000001
 20
218.910551613264
 30
0.0
 11
-139.5000000000001
 21
218.910551613264
 31
0.0
  0
LINE
  5
4F8
330
1F
100
AcDbEntity
  8
0
  6
DASHED
 62
     7
100
AcDbLine
 10
-136.3
 20
218.9105516132646
 30
0.0
 11
-134.8000000000001
 21
218.9105516132646
 31
0.0
  0
LINE
  5
4F9
330
1F
100
AcDbEntity
  8
0
  6
DASHED
 62
     7
100
AcDbLine
 10
-139.5000000000001
 20
218.910551613264
 30
0.0
 11
-136.3
 21
218.9105516132646
 31
0.0
  0
LINE
  5
4FA
330
1F
100
AcDbEntity
  8
0
  6
DASHED
 62
     7
100
AcDbLine
 10
-134.8000000000001
 20
218.9105516132646
 30
0.0
 11
-131.6000000000001
 21
218.910551613264
 31
0.0
  0
LINE
  5
4FB
330
1F
100
AcDbEntity
  8
0
  6
DASHED
 62
     7
100
AcDbLine
 10
-133.5500000000001
 20
221.310551613264
 30
0.0
 11
-137.5500000000001
 21
221.310551613264
 31
0.0
  0
LINE
  5
4FC
330
1F
100
AcDbEntity
  8
0
  6
DASHED
 62
     7
100
AcDbLine
 10
-140.7500000000001
 20
217.210551613264
 30
0.0
 11
-139.7997558672045
 21
217.210551613264
 31
0.0
  0
LINE
  5
4FD
330
1F
100
AcDbEntity
  8
0
  6
DASHED
 62
     7
100
AcDbLine
 10
-140.7500000000001
 20
217.210551613264
 30
0.0
 11
-140.7500000000001
 21
218.910551613264
 31
0.0
  0
LINE
  5
4FE
330
1F
100
AcDbEntity
  8
0
  6
DASHED
 62
     7
100
AcDbLine
 10
-129.4500000000001
 20
217.210551613264
 30
0.0
 11
-128.4997558672045
 21
217.210551613264
 31
0.0
  0
LINE
  5
4FF
330
1F
100
AcDbEntity
  8
0
  6
DASHED
 62
     7
100
AcDbLine
 10
-129.4500000000001
 20
218.910551613264
 30
0.0
 11
-128.2000000000001
 21
218.910551613264
 31
0.0
  0
LINE
  5
500
330
1F
100
AcDbEntity
  8
0
  6
DASHED
 62
     7
100
AcDbLine
 10
-129.4500000000001
 20
217.210551613264
 30
0.0
 11
-129.4500000000001
 21
218.910551613264
 31
0.0
  0
LINE
  5
501
330
1F
100
AcDbEntity
  8
0
  6
DASHED
 62
     7
100
AcDbLine
 10
-130.3500000000001
 20
218.910551613264
 30
0.0
 11
-129.4500000000001
 21
218.910551613264
 31
0.0
  0
LINE
  5
502
330
1F
100
AcDbEntity
  8
0
  6
DASHED
 62
     7
100
AcDbLine
 10
-131.6000000000001
 20
218.910551613264
 30
0.0
 11
-130.3500000000001
 21
218.910551613264
 31
0.0
  0
LINE
  5
503
330
1F
100
AcDbEntity
  8
0
  6
DASHED
 62
     7
100
AcDbLine
 10
-131.3002441327957
 20
217.210551613264
 30
0.0
 11
-130.3500000000001
 21
217.210551613264
 31
0.0
  0
LINE
  5
504
330
1F
100
AcDbEntity
  8
0
  6
DASHED
 62
     7
100
AcDbLine
 10
-130.3500000000001
 20
218.910551613264
 30
0.0
 11
-130.3500000000001
 21
217.210551613264
 31
0.0
  0
LINE
  5
505
330
1F
100
AcDbEntity
  8
0
  6
DASHED
 62
     7
100
AcDbLine
 10
-127.5500000000001
 20
220.510551613264
 30
0.0
 11
-126.0000000000001
 21
220.510551613264
 31
0.0
  0
LINE
  5
506
330
1F
100
AcDbEntity
  8
0
  6
DASHED
 62
     7
100
AcDbLine
 10
-128.2000000000001
 20
218.910551613264
 30
0.0
 11
-127.5500000000001
 21
218.910551613264
 31
0.0
  0
LINE
  5
507
330
1F
100
AcDbEntity
  8
0
  6
DASHED
 62
     7
100
AcDbLine
 10
-125.8000000000001
 20
220.510551613264
 30
0.0
 11
-125.8500000000001
 21
220.510551613264
 31
0.0
  0
LINE
  5
508
330
1F
100
AcDbEntity
  8
0
  6
DASHED
 62
     7
100
AcDbLine
 10
-126.0000000000001
 20
220.510551613264
 30
0.0
 11
-125.8500000000001
 21
220.510551613264
 31
0.0
  0
LINE
  5
509
330
1F
100
AcDbEntity
  8
0
  6
DASHED
 62
     7
100
AcDbLine
 10
-126.0000000000001
 20
220.510551613264
 30
0.0
 11
-126.0000000000001
 21
218.910551613264
 31
0.0
  0
LINE
  5
50A
330
1F
100
AcDbEntity
  8
0
  6
DASHED
 62
     7
100
AcDbLine
 10
-125.8500000000001
 20
220.510551613264
 30
0.0
 11
-125.8500000000001
 21
218.910551613264
 31
0.0
  0
LINE
  5
50B
330
1F
100
AcDbEntity
  8
0
  6
DASHED
 62
     7
100
AcDbLine
 10
-127.5500000000001
 20
220.7105516132645
 30
0.0
 11
-127.5500000000001
 21
220.510551613264
 31
0.0
  0
LINE
  5
50C
330
1F
100
AcDbEntity
  8
0
  6
DASHED
 62
     7
100
AcDbLine
 10
-126.0000000000001
 20
218.910551613264
 30
0.0
 11
-126.7500000000001
 21
218.910551613264
 31
0.0
  0
LINE
  5
50D
330
1F
100
AcDbEntity
  8
0
  6
DASHED
 62
     7
100
AcDbLine
 10
-125.8500000000001
 20
218.910551613264
 30
0.0
 11
-126.0000000000001
 21
218.910551613264
 31
0.0
  0
LINE
  5
50E
330
1F
100
AcDbEntity
  8
0
  6
DASHED
 62
     7
100
AcDbLine
 10
-125.3500000000001
 20
218.910551613264
 30
0.0
 11
-125.8500000000001
 21
218.910551613264
 31
0.0
  0
LINE
  5
50F
330
1F
100
AcDbEntity
  8
0
  6
DASHED
 62
     7
100
AcDbLine
 10
-126.7500000000001
 20
218.910551613264
 30
0.0
 11
-127.5500000000001
 21
218.910551613264
 31
0.0
  0
LINE
  5
510
330
1F
100
AcDbEntity
  8
0
  6
DASHED
 62
     7
100
AcDbLine
 10
-125.3500000000001
 20
218.910551613264
 30
0.0
 11
-125.3500000000001
 21
219.0605516132642
 31
0.0
  0
LINE
  5
511
330
1F
100
AcDbEntity
  8
0
  6
DASHED
 62
     7
100
AcDbLine
 10
-139.7997558672045
 20
217.210551613264
 30
0.0
 11
-139.5000000000001
 21
218.910551613264
 31
0.0
  0
LINE
  5
512
330
1F
100
AcDbEntity
  8
0
  6
DASHED
 62
     7
100
AcDbLine
 10
-131.3002441327957
 20
217.210551613264
 30
0.0
 11
-131.6000000000001
 21
218.910551613264
 31
0.0
  0
LINE
  5
513
330
1F
100
AcDbEntity
  8
0
  6
DASHED
 62
     7
100
AcDbLine
 10
-128.4997558672045
 20
217.210551613264
 30
0.0
 11
-128.2000000000001
 21
218.910551613264
 31
0.0
  0
LINE
  5
514
330
1F
100
AcDbEntity
  8
0
  6
DASHED
 62
     7
100
AcDbLine
 10
-137.5500000000001
 20
221.310551613264
 30
0.0
 11
-137.5500000000001
 21
222.610551613264
 31
0.0
  0
LINE
  5
515
330
1F
100
AcDbEntity
  8
0
  6
DASHED
 62
     7
100
AcDbLine
 10
-132.4000000000001
 20
222.610551613264
 30
0.0
 11
-133.5500000000001
 21
222.610551613264
 31
0.0
  0
LINE
  5
516
330
1F
100
AcDbEntity
  8
0
  6
DASHED
 62
     7
100
AcDbLine
 10
-132.4000000000001
 20
224.560551613264
 30
0.0
 11
-132.4000000000001
 21
222.610551613264
 31
0.0
  0
LINE
  5
517
330
1F
100
AcDbEntity
  8
0
  6
DASHED
 62
     7
100
AcDbLine
 10
-133.5500000000001
 20
222.610551613264
 30
0.0
 11
-133.5500000000001
 21
221.310551613264
 31
0.0
  0
LINE
  5
518
330
1F
100
AcDbEntity
  8
0
  6
DASHED
 62
     7
100
AcDbLine
 10
-129.5500000000001
 20
224.560551613264
 30
0.0
 11
-132.4000000000001
 21
224.560551613264
 31
0.0
  0
LINE
  5
519
330
1F
100
AcDbEntity
  8
0
  6
DASHED
 62
     7
100
AcDbLine
 10
-129.5500000000001
 20
231.460551613264
 30
0.0
 11
-129.5500000000001
 21
224.560551613264
 31
0.0
  0
LINE
  5
51A
330
1F
100
AcDbEntity
  8
0
  6
DASHED
 62
     7
100
AcDbLine
 10
-127.5500000000001
 20
220.7105516132645
 30
0.0
 11
-127.5500000000001
 21
221.010551613264
 31
0.0
  0
LINE
  5
51B
330
1F
100
AcDbEntity
  8
0
  6
DASHED
 62
     7
100
AcDbLine
 10
-127.5500000000001
 20
232.7105516132639
 30
0.0
 11
-127.5500000000001
 21
234.310551613264
 31
0.0
  0
LINE
  5
51C
330
1F
100
AcDbEntity
  8
0
  6
DASHED
 62
     7
100
AcDbLine
 10
-127.5500000000001
 20
221.510551613264
 30
0.0
 11
-127.5500000000001
 21
222.2105516132644
 31
0.0
  0
LINE
  5
51D
330
1F
100
AcDbEntity
  8
0
  6
DASHED
 62
     7
100
AcDbLine
 10
-127.5500000000001
 20
221.010551613264
 30
0.0
 11
-127.5500000000001
 21
221.510551613264
 31
0.0
  0
LINE
  5
51E
330
1F
100
AcDbEntity
  8
0
  6
DASHED
 62
     7
100
AcDbLine
 10
-127.5500000000001
 20
222.2105516132644
 30
0.0
 11
-127.5500000000001
 21
232.7105516132639
 31
0.0
  0
LINE
  5
51F
330
1F
100
AcDbEntity
  8
0
  6
DASHED
 62
     7
100
AcDbLine
 10
-141.5500000000001
 20
224.560551613264
 30
0.0
 11
-141.5500000000001
 21
231.460551613264
 31
0.0
  0
LINE
  5
520
330
1F
100
AcDbEntity
  8
0
  6
DASHED
 62
     7
100
AcDbLine
 10
-141.6500000000001
 20
218.910551613264
 30
0.0
 11
-141.6500000000001
 21
217.210551613264
 31
0.0
  0
LINE
  5
521
330
1F
100
AcDbEntity
  8
0
  6
DASHED
 62
     7
100
AcDbLine
 10
-141.6500000000001
 20
218.910551613264
 30
0.0
 11
-140.7500000000001
 21
218.910551613264
 31
0.0
  0
LINE
  5
522
330
1F
100
AcDbEntity
  8
0
  6
DASHED
 62
     7
100
AcDbLine
 10
-142.9000000000001
 20
218.910551613264
 30
0.0
 11
-141.6500000000001
 21
218.910551613264
 31
0.0
  0
LINE
  5
523
330
1F
100
AcDbEntity
  8
0
  6
DASHED
 62
     7
100
AcDbLine
 10
-142.6002441327957
 20
217.210551613264
 30
0.0
 11
-141.6500000000001
 21
217.210551613264
 31
0.0
  0
LINE
  5
524
330
1F
100
AcDbEntity
  8
0
  6
DASHED
 62
     7
100
AcDbLine
 10
-138.7000000000001
 20
224.560551613264
 30
0.0
 11
-141.5500000000001
 21
224.560551613264
 31
0.0
  0
LINE
  5
525
330
1F
100
AcDbEntity
  8
0
  6
DASHED
 62
     7
100
AcDbLine
 10
-138.7000000000001
 20
222.610551613264
 30
0.0
 11
-138.7000000000001
 21
224.560551613264
 31
0.0
  0
LINE
  5
526
330
1F
100
AcDbEntity
  8
0
  6
DASHED
 62
     7
100
AcDbLine
 10
-137.5500000000001
 20
222.610551613264
 30
0.0
 11
-138.7000000000001
 21
222.610551613264
 31
0.0
  0
LINE
  5
527
330
1F
100
AcDbEntity
  8
0
  6
DASHED
 62
     7
100
AcDbLine
 10
-143.5500000000001
 20
218.9105516132645
 30
0.0
 11
-142.9000000000001
 21
218.910551613264
 31
0.0
  0
LINE
  5
528
330
1F
100
AcDbEntity
  8
0
  6
DASHED
 62
     7
100
AcDbLine
 10
-143.5500000000001
 20
220.510551613264
 30
0.0
 11
-143.5500000000001
 21
220.7105516132644
 31
0.0
  0
LINE
  5
529
330
1F
100
AcDbEntity
  8
0
  6
DASHED
 62
     7
100
AcDbLine
 10
-143.5500000000001
 20
221.010551613264
 30
0.0
 11
-143.5500000000001
 21
220.7105516132644
 31
0.0
  0
LINE
  5
52A
330
1F
100
AcDbEntity
  8
0
  6
DASHED
 62
     7
100
AcDbLine
 10
-145.1000000000001
 20
220.510551613264
 30
0.0
 11
-143.5500000000001
 21
220.510551613264
 31
0.0
  0
LINE
  5
52B
330
1F
100
AcDbEntity
  8
0
  6
DASHED
 62
     7
100
AcDbLine
 10
-145.1000000000001
 20
218.910551613264
 30
0.0
 11
-144.3500000000001
 21
218.910551613264
 31
0.0
  0
LINE
  5
52C
330
1F
100
AcDbEntity
  8
0
  6
DASHED
 62
     7
100
AcDbLine
 10
-144.3500000000001
 20
218.910551613264
 30
0.0
 11
-143.5500000000001
 21
218.9105516132645
 31
0.0
  0
LINE
  5
52D
330
1F
100
AcDbEntity
  8
0
  6
DASHED
 62
     7
100
AcDbLine
 10
-143.5500000000001
 20
232.7105516132639
 30
0.0
 11
-143.5500000000001
 21
234.310551613264
 31
0.0
  0
LINE
  5
52E
330
1F
100
AcDbEntity
  8
0
  6
DASHED
 62
     7
100
AcDbLine
 10
-143.5500000000001
 20
221.510551613264
 30
0.0
 11
-143.5500000000001
 21
221.010551613264
 31
0.0
  0
LINE
  5
52F
330
1F
100
AcDbEntity
  8
0
  6
DASHED
 62
     7
100
AcDbLine
 10
-143.5500000000001
 20
222.2105516132642
 30
0.0
 11
-143.5500000000001
 21
221.510551613264
 31
0.0
  0
LINE
  5
530
330
1F
100
AcDbEntity
  8
0
  6
DASHED
 62
     7
100
AcDbLine
 10
-143.5500000000001
 20
222.2105516132642
 30
0.0
 11
-143.5500000000001
 21
232.7105516132639
 31
0.0
  0
LINE
  5
531
330
1F
100
AcDbEntity
  8
0
  6
DASHED
 62
     7
100
AcDbLine
 10
-145.1000000000001
 20
218.910551613264
 30
0.0
 11
-145.1000000000001
 21
220.510551613264
 31
0.0
  0
LINE
  5
532
330
1F
100
AcDbEntity
  8
0
  6
DASHED
 62
     7
100
AcDbLine
 10
-145.7500000000001
 20
219.0605516132643
 30
0.0
 11
-145.7500000000001
 21
218.910551613264
 31
0.0
  0
LINE
  5
533
330
1F
100
AcDbEntity
  8
0
  6
DASHED
 62
     7
100
AcDbLine
 10
-145.2500000000001
 20
218.910551613264
 30
0.0
 11
-145.1000000000001
 21
218.910551613264
 31
0.0
  0
LINE
  5
534
330
1F
100
AcDbEntity
  8
0
  6
DASHED
 62
     7
100
AcDbLine
 10
-145.7500000000001
 20
218.910551613264
 30
0.0
 11
-145.2500000000001
 21
218.910551613264
 31
0.0
  0
LINE
  5
535
330
1F
100
AcDbEntity
  8
0
  6
DASHED
 62
     7
100
AcDbLine
 10
-145.2500000000001
 20
220.510551613264
 30
0.0
 11
-145.3000000000001
 21
220.510551613264
 31
0.0
  0
LINE
  5
536
330
1F
100
AcDbEntity
  8
0
  6
DASHED
 62
     7
100
AcDbLine
 10
-145.2500000000001
 20
220.510551613264
 30
0.0
 11
-145.1000000000001
 21
220.510551613264
 31
0.0
  0
LINE
  5
537
330
1F
100
AcDbEntity
  8
0
  6
DASHED
 62
     7
100
AcDbLine
 10
-145.2500000000001
 20
218.910551613264
 30
0.0
 11
-145.2500000000001
 21
220.510551613264
 31
0.0
  0
LINE
  5
538
330
1F
100
AcDbEntity
  8
0
  6
DASHED
 62
     7
100
AcDbLine
 10
-142.6002441327957
 20
217.210551613264
 30
0.0
 11
-142.9000000000001
 21
218.910551613264
 31
0.0
  0
LINE
  5
539
330
1F
100
AcDbEntity
  8
1
  6
Continuous
 62
     4
100
AcDbLine
 10
-127.7173712576687
 20
161.4156924468581
 30
0.0
 11
-129.1455305211579
 21
163.8911685035733
 31
0.0
  0
LINE
  5
53A
330
1F
100
AcDbEntity
  8
1
  6
Continuous
 62
     4
100
AcDbLine
 10
-129.1455305211579
 20
163.8911685035733
 30
0.0
 11
-127.7173712576687
 21
166.3666445602883
 31
0.0
  0
LINE
  5
53B
330
1F
100
AcDbEntity
  8
1
  6
Continuous
 62
     4
100
AcDbLine
 10
-127.6324492525345
 20
166.3666445602881
 30
0.0
 11
-126.2042899890454
 21
163.8911685035733
 31
0.0
  0
LINE
  5
53C
330
1F
100
AcDbEntity
  8
1
  6
Continuous
 62
     4
100
AcDbLine
 10
-126.2042899890454
 20
163.8911685035733
 30
0.0
 11
-127.6324492525345
 21
161.4156924468583
 31
0.0
  0
LINE
  5
53D
330
1F
100
AcDbEntity
  8
1
  6
Continuous
 62
     4
100
AcDbLine
 10
-127.6694114376011
 20
164.6779532447178
 30
0.0
 11
-127.6694114376011
 21
165.1655517407158
 31
0.0
  0
LINE
  5
53E
330
1F
100
AcDbEntity
  8
1
  6
Continuous
 62
     4
100
AcDbLine
 10
-128.3860100907799
 20
164.6779532447178
 30
0.0
 11
-126.9638104194235
 21
164.6779532447178
 31
0.0
  0
LINE
  5
53F
330
1F
100
AcDbEntity
  8
1
  6
Continuous
 62
     4
100
AcDbLine
 10
-128.3860100907799
 20
164.6779532447178
 30
0.0
 11
-128.1121830849138
 21
165.1525867215523
 31
0.0
  0
LINE
  5
540
330
1F
100
AcDbEntity
  8
1
  6
Continuous
 62
     4
100
AcDbLine
 10
-126.9638104194235
 20
164.6779532447178
 30
0.0
 11
-127.2376374252895
 21
165.1525867215523
 31
0.0
  0
LINE
  5
541
330
1F
100
AcDbEntity
  8
1
  6
Continuous
 62
     4
100
AcDbLine
 10
-126.9638104194234
 20
163.1043837624289
 30
0.0
 11
-126.5174649991112
 21
163.8780491576368
 31
0.0
  0
LINE
  5
542
330
1F
100
AcDbEntity
  8
1
  6
Continuous
 62
     4
100
AcDbLine
 10
-127.185724064362
 20
162.7197334445357
 30
0.0
 11
-128.1708876937668
 21
162.7197334445357
 31
0.0
  0
LINE
  5
543
330
1F
100
AcDbEntity
  8
1
  6
Continuous
 62
     4
100
AcDbLine
 10
-128.3928013387052
 20
163.1043837624288
 30
0.0
 11
-126.9638104194234
 21
163.1043837624289
 31
0.0
  0
LINE
  5
544
330
1F
100
AcDbEntity
  8
1
  6
Continuous
 62
     4
100
AcDbLine
 10
-127.2090852576201
 20
163.5090159150177
 30
0.0
 11
-128.5329006568649
 21
163.5090159150174
 31
0.0
  0
LINE
  5
545
330
1F
100
AcDbEntity
  8
1
  6
Continuous
 62
     4
100
AcDbLine
 10
-126.7390147790963
 20
164.2883074681509
 30
0.0
 11
-128.5588578215558
 21
164.2883074681509
 31
0.0
  0
LINE
  5
546
330
1F
100
AcDbEntity
  8
1
  6
Continuous
 62
     4
100
AcDbLine
 10
-128.5329006568649
 20
163.5090159150174
 30
0.0
 11
-127.8709929572426
 21
163.8911685035735
 31
0.0
  0
LINE
  5
547
330
1F
100
AcDbEntity
  8
1
  6
Continuous
 62
     4
100
AcDbLine
 10
-127.8709929572426
 20
163.8911685035735
 30
0.0
 11
-128.5588578215558
 21
164.2883074681509
 31
0.0
  0
ARC
  5
548
102
{ACAD_REACTORS
330
640
102
}
330
1F
100
AcDbEntity
  8
1
  6
Continuous
 62
     7
100
AcDbCircle
 10
-19.72539976544871
 20
15.73121731203457
 30
0.0
 40
0.2649662124752792
100
AcDbArc
 50
30.00000000001998
 51
180.0
  0
ARC
  5
549
102
{ACAD_REACTORS
330
640
102
}
330
1F
100
AcDbEntity
  8
1
  6
Continuous
 62
     7
100
AcDbCircle
 10
-19.65703264459071
 20
10.84758507263291
 30
0.0
 40
0.3333333333332895
100
AcDbArc
 50
180.0
 51
0.0
  0
ARC
  5
54A
102
{ACAD_REACTORS
330
640
102
}
330
1F
100
AcDbEntity
  8
1
  6
Continuous
 62
     7
100
AcDbCircle
 10
-16.99036597792392
 20
9.3082690706018
 30
0.0
 40
0.3333333333334032
100
AcDbArc
 50
180.0
 51
0.0
  0
ARC
  5
54B
102
{ACAD_REACTORS
330
640
102
}
330
1F
100
AcDbEntity
  8
1
  6
Continuous
 62
     7
100
AcDbCircle
 10
-16.921998857066
 20
15.73121731203457
 30
0.0
 40
0.2649662124752901
100
AcDbArc
 50
0.0
 51
149.9999999999712
  0
ARC
  5
54C
102
{ACAD_REACTORS
330
641
102
}
330
1F
100
AcDbEntity
  8
1
  6
Continuous
 62
     7
100
AcDbCircle
 10
-20.990365977924
 20
14.92250016016737
 30
0.0
 40
0.3333333333332895
100
AcDbArc
 50
0.0
 51
180.0
  0
ARC
  5
54D
102
{ACAD_REACTORS
330
641
102
}
330
1F
100
AcDbEntity
  8
1
  6
Continuous
 62
     7
100
AcDbCircle
 10
-18.65703264459071
 20
8.7313459936787
 30
0.0
 40
0.3333333333333567
100
AcDbArc
 50
240.0183606311536
 51
60.0183606311372
  0
ARC
  5
54E
102
{ACAD_REACTORS
330
63F
102
}
330
1F
100
AcDbEntity
  8
1
  6
Continuous
 62
     7
100
AcDbCircle
 10
-22.32369931125732
 20
14.15326939093666
 30
0.0
 40
0.3333333333333215
100
AcDbArc
 50
0.0
 51
180.0
  0
ARC
  5
54F
102
{ACAD_REACTORS
330
63F
102
}
330
1F
100
AcDbEntity
  8
1
  6
Continuous
 62
     7
100
AcDbCircle
 10
-22.32369931125732
 20
10.84673060906323
 30
0.0
 40
0.333333333333389
100
AcDbArc
 50
180.0
 51
0.0
  0
ARC
  5
550
102
{ACAD_REACTORS
330
642
102
}
330
1F
100
AcDbEntity
  8
1
  6
Continuous
 62
     7
100
AcDbCircle
 10
-14.32369931125732
 20
14.15326939093666
 30
0.0
 40
0.3333333333333569
100
AcDbArc
 50
240.0183606311553
 51
60.01836063115558
  0
ARC
  5
551
102
{ACAD_REACTORS
330
642
102
}
330
1F
100
AcDbEntity
  8
1
  6
Continuous
 62
     7
100
AcDbCircle
 10
-14.32369931125732
 20
12.5
 30
0.0
 40
0.3333333333333695
100
AcDbArc
 50
270.0
 51
90.0
  0
ARC
  5
552
102
{ACAD_REACTORS
330
642
102
}
330
1F
100
AcDbEntity
  8
1
  6
Continuous
 62
     7
100
AcDbCircle
 10
-14.32369931125732
 20
10.84673060906323
 30
0.0
 40
0.3333333333333198
100
AcDbArc
 50
299.9816393688342
 51
119.9816393688352
  0
ARC
  5
553
330
1F
100
AcDbEntity
  8
0
  6
Continuous
 62
     7
100
AcDbCircle
 10
-71.79999999999981
 20
187.6411685035746
 30
0.0
 40
0.5
100
AcDbArc
 50
90.0
 51
180.0
  0
ARC
  5
554
330
1F
100
AcDbEntity
  8
0
  6
Continuous
 62
     7
100
AcDbCircle
 10
-46.39999999999949
 20
187.6411685035745
 30
0.0
 40
0.5
100
AcDbArc
 50
0.0
 51
90.0
  0
ARC
  5
555
330
1F
100
AcDbEntity
  8
0
  6
Continuous
 62
     7
100
AcDbCircle
 10
-106.5000000000002
 20
187.6411685035739
 30
0.0
 40
0.5
100
AcDbArc
 50
0.0
 51
90.0
  0
ARC
  5
556
330
1F
100
AcDbEntity
  8
0
  6
Continuous
 62
     7
100
AcDbCircle
 10
-105.3000000000002
 20
187.6411685035739
 30
0.0
 40
0.5
100
AcDbArc
 50
0.0
 51
90.0
  0
ARC
  5
557
330
1F
100
AcDbEntity
  8
0
  6
Continuous
 62
     7
100
AcDbCircle
 10
-104.0000000000001
 20
176.1411685035739
 30
0.0
 40
1.0
100
AcDbArc
 50
0.0
 51
90.0
  0
ARC
  5
558
330
1F
100
AcDbEntity
  8
0
  6
Continuous
 62
     7
100
AcDbCircle
 10
-113.9500000000001
 20
155.1411685035737
 30
0.0
 40
0.5
100
AcDbArc
 50
89.9999999999886
 51
180.0
  0
ARC
  5
559
330
1F
100
AcDbEntity
  8
0
  6
Continuous
 62
     7
100
AcDbCircle
 10
-106.7500000000001
 20
155.1411685035737
 30
0.0
 40
0.5
100
AcDbArc
 50
0.0
 51
90.0
  0
ARC
  5
55A
330
1F
100
AcDbEntity
  8
0
  6
Continuous
 62
     7
100
AcDbCircle
 10
-144.8000000000002
 20
187.6411685035739
 30
0.0
 40
0.5
100
AcDbArc
 50
90.0
 51
180.0
  0
ARC
  5
55B
330
1F
100
AcDbEntity
  8
0
  6
Continuous
 62
     7
100
AcDbCircle
 10
-127.1000000000002
 20
187.6411685035739
 30
0.0
 40
0.5
100
AcDbArc
 50
0.0
 51
90.0
  0
ARC
  5
55C
330
1F
100
AcDbEntity
  8
0
  6
Continuous
 62
     7
100
AcDbCircle
 10
-123.8000000000002
 20
187.6411685035739
 30
0.0
 40
0.5
100
AcDbArc
 50
90.0
 51
180.0
  0
ARC
  5
55D
330
1F
100
AcDbEntity
  8
0
  6
Continuous
 62
     7
100
AcDbCircle
 10
-126.4000000000002
 20
172.4411685035737
 30
0.0
 40
0.2999999999999829
100
AcDbArc
 50
270.0
 51
0.0
  0
ARC
  5
55E
330
1F
100
AcDbEntity
  8
0
  6
Continuous
 62
     7
100
AcDbCircle
 10
-125.1000000000002
 20
176.141168503574
 30
0.0
 40
1.0
100
AcDbArc
 50
90.0
 51
180.0
  0
ARC
  5
55F
330
1F
100
AcDbEntity
  8
0
  6
Continuous
 62
     7
100
AcDbCircle
 10
-143.3500000000002
 20
155.1411685035736
 30
0.0
 40
0.5
100
AcDbArc
 50
90.0
 51
180.0
  0
ARC
  5
560
330
1F
100
AcDbEntity
  8
0
  6
Continuous
 62
     7
100
AcDbCircle
 10
-146.1000000000001
 20
176.1411685035739
 30
0.0
 40
1.0
100
AcDbArc
 50
90.0
 51
180.0
  0
ARC
  5
561
330
1F
100
AcDbEntity
  8
0
  6
Continuous
 62
     7
100
AcDbCircle
 10
-128.6500000000002
 20
155.1411685035736
 30
0.0
 40
0.5
100
AcDbArc
 50
89.99999999997719
 51
180.0
  0
ARC
  5
562
330
1F
100
AcDbEntity
  8
0
  6
Continuous
 62
     7
100
AcDbCircle
 10
-121.45
 20
155.1411685035737
 30
0.0
 40
0.5
100
AcDbArc
 50
0.0
 51
90.0
  0
ARC
  5
563
330
1F
100
AcDbEntity
  8
0
  6
Continuous
 62
     7
100
AcDbCircle
 10
-136.1500000000002
 20
155.1411685035736
 30
0.0
 40
0.500000000000199
100
AcDbArc
 50
0.0
 51
89.99999999997719
  0
ARC
  5
564
330
1F
100
AcDbEntity
  8
0
  6
DASHED
 62
     7
100
AcDbCircle
 10
-120.2000000000001
 20
153.8411685035737
 30
0.0
 40
1.400244132795648
100
AcDbArc
 50
238.9806612966039
 51
251.254049978791
  0
ARC
  5
565
330
1F
100
AcDbEntity
  8
0
  6
DASHED
 62
     7
100
AcDbCircle
 10
-120.2000000000001
 20
153.8411685035737
 30
0.0
 40
1.400244132795623
100
AcDbArc
 50
288.745950021209
 51
301.0193387033926
  0
ARC
  5
566
330
1F
100
AcDbEntity
  8
0
  6
DASHED
 62
     7
100
AcDbCircle
 10
-108.9000000000001
 20
153.8411685035737
 30
0.0
 40
1.700000000000004
100
AcDbArc
 50
254.6505229829923
 51
285.3494770170082
  0
ARC
  5
567
330
1F
100
AcDbEntity
  8
0
  6
DASHED
 62
     7
100
AcDbCircle
 10
-108.9000000000001
 20
153.8411685035737
 30
0.0
 40
1.400244132795596
100
AcDbArc
 50
238.9806612966074
 51
251.2540499787915
  0
ARC
  5
568
330
1F
100
AcDbEntity
  8
0
  6
DASHED
 62
     7
100
AcDbCircle
 10
-108.9000000000001
 20
153.8411685035737
 30
0.0
 40
1.69999999999996
100
AcDbArc
 50
224.9008721559925
 51
254.6505229829923
  0
ARC
  5
569
330
1F
100
AcDbEntity
  8
0
  6
DASHED
 62
     7
100
AcDbCircle
 10
-108.9000000000001
 20
153.8411685035737
 30
0.0
 40
1.400244132795623
100
AcDbArc
 50
288.745950021209
 51
301.0193387033891
  0
ARC
  5
56A
330
1F
100
AcDbEntity
  8
0
  6
DASHED
 62
     7
100
AcDbCircle
 10
-108.9000000000001
 20
153.8411685035737
 30
0.0
 40
1.700000000000008
100
AcDbArc
 50
285.3494770170082
 51
315.0991278440079
  0
ARC
  5
56B
330
1F
100
AcDbEntity
  8
0
  6
DASHED
 62
     7
100
AcDbCircle
 10
-108.9000000000001
 20
153.8411685035737
 30
0.0
 40
1.749999999999969
100
AcDbArc
 50
223.2918075932897
 51
316.7081924067106
  0
ARC
  5
56C
330
1F
100
AcDbEntity
  8
0
  6
DASHED
 62
     7
100
AcDbCircle
 10
-120.2000000000001
 20
153.8411685035737
 30
0.0
 40
1.700000000000008
100
AcDbArc
 50
254.6505229829919
 51
285.3494770170082
  0
ARC
  5
56D
330
1F
100
AcDbEntity
  8
0
  6
DASHED
 62
     7
100
AcDbCircle
 10
-120.2000000000001
 20
153.8411685035737
 30
0.0
 40
1.69999999999997
100
AcDbArc
 50
224.9008721559921
 51
254.6505229829919
  0
ARC
  5
56E
330
1F
100
AcDbEntity
  8
0
  6
DASHED
 62
     7
100
AcDbCircle
 10
-120.2000000000001
 20
153.8411685035737
 30
0.0
 40
1.700000000000008
100
AcDbArc
 50
285.3494770170082
 51
315.0991278440079
  0
ARC
  5
56F
330
1F
100
AcDbEntity
  8
0
  6
DASHED
 62
     7
100
AcDbCircle
 10
-120.2000000000001
 20
153.8411685035737
 30
0.0
 40
1.749999999999969
100
AcDbArc
 50
223.2918075932897
 51
316.7081924067106
  0
ARC
  5
570
330
1F
100
AcDbEntity
  8
0
  6
Continuous
 62
     7
100
AcDbCircle
 10
-144.3000000000001
 20
79.2593567464946
 30
0.0
 40
0.9999999999999147
100
AcDbArc
 50
180.0
 51
270.0000000000049
  0
ARC
  5
571
330
1F
100
AcDbEntity
  8
0
  6
Continuous
 62
     7
100
AcDbCircle
 10
-127.6000000000001
 20
79.2593567464946
 30
0.0
 40
1.0
100
AcDbArc
 50
270.0
 51
0.0
  0
ARC
  5
572
330
1F
100
AcDbEntity
  8
0
  6
Continuous
 62
     7
100
AcDbCircle
 10
-133.6000000000001
 20
81.4593567464945
 30
0.0
 40
2.349999999999994
100
AcDbArc
 50
180.0
 51
0.0
  0
ARC
  5
573
330
1F
100
AcDbEntity
  8
0
  6
Continuous
 62
     7
100
AcDbCircle
 10
-123.3000000000002
 20
79.2593567464946
 30
0.0
 40
1.0
100
AcDbArc
 50
180.0
 51
270.0000000000057
  0
ARC
  5
574
330
1F
100
AcDbEntity
  8
0
  6
Continuous
 62
     7
100
AcDbCircle
 10
-102.8000000000001
 20
82.803616969579
 30
0.0
 40
0.1999999999999034
100
AcDbArc
 50
180.0000000000488
 51
295.0000000000496
  0
ARC
  5
575
330
1F
100
AcDbEntity
  8
0
  6
Continuous
 62
     7
100
AcDbCircle
 10
-105.5000000000001
 20
80.4593567464949
 30
0.0
 40
0.5
100
AcDbArc
 50
90.0
 51
180.0
  0
ARC
  5
576
330
1F
100
AcDbEntity
  8
0
  6
Continuous
 62
     7
100
AcDbCircle
 10
-102.8000000000001
 20
101.459356746495
 30
0.0
 40
0.2000000000000024
100
AcDbArc
 50
102.4999999999934
 51
180.0
  0
ARC
  5
577
330
1F
100
AcDbEntity
  8
0
  6
Continuous
 62
     7
100
AcDbCircle
 10
-102.7999999999999
 20
81.4593567464951
 30
0.0
 40
0.2000000000002018
100
AcDbArc
 50
180.0000000000326
 51
257.499999999958
  0
ARC
  5
578
330
1F
100
AcDbEntity
  8
0
  6
Continuous
 62
     7
100
AcDbCircle
 10
-102.8000000000001
 20
101.459356746495
 30
0.0
 40
0.2000000000000028
100
AcDbArc
 50
180.0
 51
257.5000000000353
  0
ARC
  5
579
330
1F
100
AcDbEntity
  8
0
  6
Continuous
 62
     7
100
AcDbCircle
 10
-102.7999999999999
 20
81.4593567464951
 30
0.0
 40
0.2000000000000024
100
AcDbArc
 50
102.4999999999934
 51
180.0000000000326
  0
ARC
  5
57A
330
1F
100
AcDbEntity
  8
0
  6
Continuous
 62
     7
100
AcDbCircle
 10
-102.8000000000001
 20
102.803616969579
 30
0.0
 40
0.2000000000000028
100
AcDbArc
 50
180.0
 51
294.9999999999928
  0
ARC
  5
57B
330
1F
100
AcDbEntity
  8
0
  6
Continuous
 62
     7
100
AcDbCircle
 10
-102.8000000000001
 20
80.11509652341098
 30
0.0
 40
0.2000000000001512
100
AcDbArc
 50
64.99999999997107
 51
180.0
  0
ARC
  5
57C
330
1F
100
AcDbEntity
  8
0
  6
Continuous
 62
     7
100
AcDbCircle
 10
-102.8000000000001
 20
100.115096523411
 30
0.0
 40
0.2000000000000413
100
AcDbArc
 50
65.0000000000193
 51
180.0
  0
ARC
  5
57D
330
1F
100
AcDbEntity
  8
0
  6
Continuous
 62
     7
100
AcDbCircle
 10
-105.3000000000002
 20
81.4593567464949
 30
0.0
 40
0.5
100
AcDbArc
 50
270.0
 51
0.0
  0
ARC
  5
57E
330
1F
100
AcDbEntity
  8
0
  6
Continuous
 62
     7
100
AcDbCircle
 10
-102.3
 20
80.9387976094477
 30
0.0
 40
0.2000000000000028
100
AcDbArc
 50
359.9999999999593
 51
77.49999999998406
  0
ARC
  5
57F
330
1F
100
AcDbEntity
  8
0
  6
Continuous
 62
     7
100
AcDbCircle
 10
-102.2999999999999
 20
80.32329386191859
 30
0.0
 40
0.2000000000000526
100
AcDbArc
 50
313.3392229868055
 51
359.9999999999349
  0
ARC
  5
580
330
1F
100
AcDbEntity
  8
0
  6
Continuous
 62
     7
100
AcDbCircle
 10
-102.2999999999999
 20
81.97991588354236
 30
0.0
 40
0.2000000000000024
100
AcDbArc
 50
282.4999999999935
 51
359.9999999999349
  0
ARC
  5
581
330
1F
100
AcDbEntity
  8
0
  6
Continuous
 62
     7
100
AcDbCircle
 10
-102.3000000000001
 20
82.59541963107151
 30
0.0
 40
0.2000000000001023
100
AcDbArc
 50
359.9999999999512
 51
46.66077701316431
  0
ARC
  5
582
330
1F
100
AcDbEntity
  8
0
  6
Continuous
 62
     7
100
AcDbCircle
 10
-102.3000000000001
 20
102.5954196310715
 30
0.0
 40
0.2000000000000028
100
AcDbArc
 50
0.0
 51
46.66077701319738
  0
ARC
  5
583
330
1F
100
AcDbEntity
  8
0
  6
Continuous
 62
     7
100
AcDbCircle
 10
-102.3000000000001
 20
100.3232938619185
 30
0.0
 40
0.2000000000000629
100
AcDbArc
 50
313.3392229868027
 51
0.0
  0
ARC
  5
584
330
1F
100
AcDbEntity
  8
0
  6
Continuous
 62
     7
100
AcDbCircle
 10
-102.3000000000001
 20
82.59541963107151
 30
0.0
 40
0.2000000000002304
100
AcDbArc
 50
46.66077701316431
 51
114.9999999999807
  0
ARC
  5
585
330
1F
100
AcDbEntity
  8
0
  6
Continuous
 62
     7
100
AcDbCircle
 10
-102.3000000000001
 20
100.3232938619185
 30
0.0
 40
0.1999999999999512
100
AcDbArc
 50
245.0000000000072
 51
313.3392229868027
  0
ARC
  5
586
330
1F
100
AcDbEntity
  8
0
  6
Continuous
 62
     7
100
AcDbCircle
 10
-102.3000000000001
 20
102.5954196310715
 30
0.0
 40
0.2000000000000629
100
AcDbArc
 50
46.66077701319738
 51
114.999999999991
  0
ARC
  5
587
330
1F
100
AcDbEntity
  8
0
  6
Continuous
 62
     7
100
AcDbCircle
 10
-102.2999999999999
 20
80.32329386191859
 30
0.0
 40
0.2000000000000576
100
AcDbArc
 50
244.99999999999
 51
313.3392229868055
  0
ARC
  5
588
330
1F
100
AcDbEntity
  8
0
  6
Continuous
 62
     7
100
AcDbCircle
 10
-102.3000000000001
 20
100.9387976094477
 30
0.0
 40
0.2000000000000028
100
AcDbArc
 50
0.0
 51
77.5000000000066
  0
ARC
  5
589
330
1F
100
AcDbEntity
  8
0
  6
Continuous
 62
     7
100
AcDbCircle
 10
-102.3000000000001
 20
101.9799158835423
 30
0.0
 40
0.2000000000000163
100
AcDbArc
 50
282.4999999999925
 51
0.0
  0
ARC
  5
58A
330
1F
100
AcDbEntity
  8
0
  6
Continuous
 62
     7
100
AcDbCircle
 10
-107.0000000000001
 20
79.2593567464946
 30
0.0
 40
1.0
100
AcDbArc
 50
270.0
 51
0.0
  0
ARC
  5
58B
330
1F
100
AcDbEntity
  8
0
  6
Continuous
 62
     7
100
AcDbCircle
 10
-122.5000000000001
 20
103.6593567464949
 30
0.0
 40
1.0
100
AcDbArc
 50
90.0
 51
180.0
  0
ARC
  5
58C
330
1F
100
AcDbEntity
  8
0
  6
Continuous
 62
     7
100
AcDbCircle
 10
-116.5000000000001
 20
101.459356746495
 30
0.0
 40
2.349999999999994
100
AcDbArc
 50
0.0
 51
180.0
  0
ARC
  5
58D
330
1F
100
AcDbEntity
  8
0
  6
Continuous
 62
     7
100
AcDbCircle
 10
-126.8000000000001
 20
103.6593567464949
 30
0.0
 40
1.0
100
AcDbArc
 50
0.0
 51
90.0
  0
ARC
  5
58E
330
1F
100
AcDbEntity
  8
0
  6
Continuous
 62
     7
100
AcDbCircle
 10
-144.3
 20
103.6593567464949
 30
0.0
 40
1.0
100
AcDbArc
 50
90.00000000000487
 51
180.0
  0
ARC
  5
58F
330
1F
100
AcDbEntity
  8
0
  6
Continuous
 62
     7
100
AcDbCircle
 10
-142.6000000000001
 20
81.45935674649459
 30
0.0
 40
2.349999999999994
100
AcDbArc
 50
359.9999999999979
 51
90.0
  0
ARC
  5
590
330
1F
100
AcDbEntity
  8
0
  6
Continuous
 62
     7
100
AcDbCircle
 10
-133.6000000000001
 20
81.4593567464945
 30
0.0
 40
2.349999999999994
100
AcDbArc
 50
0.0
 51
180.0
  0
ARC
  5
591
330
1F
100
AcDbEntity
  8
0
  6
Continuous
 62
     7
100
AcDbCircle
 10
-107.3000000000001
 20
102.1593567464949
 30
0.0
 40
2.5
100
AcDbArc
 50
0.0
 51
90.0
  0
ARC
  5
592
330
1F
100
AcDbEntity
  8
0
  6
Continuous
 62
     7
100
AcDbCircle
 10
-107.5000000000001
 20
101.459356746495
 30
0.0
 40
2.350000000000037
100
AcDbArc
 50
270.0
 51
180.0
  0
ARC
  5
593
330
1F
100
AcDbEntity
  8
0
  6
Continuous
 62
     7
100
AcDbCircle
 10
-107.5000000000001
 20
101.459356746495
 30
0.0
 40
2.349999999999994
100
AcDbArc
 50
180.0
 51
270.0
  0
ARC
  5
594
330
1F
100
AcDbEntity
  8
0
  6
Continuous
 62
     7
100
AcDbCircle
 10
-116.5000000000001
 20
101.459356746495
 30
0.0
 40
2.349999999999994
100
AcDbArc
 50
180.0
 51
0.0
  0
ARC
  5
595
330
1F
100
AcDbEntity
  8
0
  6
Continuous
 62
     7
100
AcDbCircle
 10
-142.6000000000001
 20
81.45935674649459
 30
0.0
 40
2.349999999999909
100
AcDbArc
 50
90.0
 51
359.9999999999979
  0
ARC
  5
596
330
1F
100
AcDbEntity
  8
0
  6
Continuous
 62
     7
100
AcDbCircle
 10
-138.1000000000001
 20
238.8105516132643
 30
0.0
 40
1.299999999999983
100
AcDbArc
 50
270.0
 51
90.0
  0
ARC
  5
597
330
1F
100
AcDbEntity
  8
0
  6
Continuous
 62
     7
100
AcDbCircle
 10
-138.1000000000001
 20
238.8105516132643
 30
0.0
 40
1.300000000000011
100
AcDbArc
 50
90.0
 51
270.0
  0
ARC
  5
598
330
1F
100
AcDbEntity
  8
0
  6
Continuous
 62
     7
100
AcDbCircle
 10
-142.6
 20
238.0105516132643
 30
0.0
 40
1.300000000000011
100
AcDbArc
 50
270.0
 51
90.00000000000502
  0
ARC
  5
599
330
1F
100
AcDbEntity
  8
0
  6
Continuous
 62
     7
100
AcDbCircle
 10
-142.6
 20
238.0105516132643
 30
0.0
 40
1.299999999999983
100
AcDbArc
 50
90.00000000000502
 51
270.0
  0
ARC
  5
59A
330
1F
100
AcDbEntity
  8
0
  6
Continuous
 62
     7
100
AcDbCircle
 10
-135.6499999999999
 20
216.0105516132641
 30
0.0
 40
0.5
100
AcDbArc
 50
90.0
 51
180.0
  0
ARC
  5
59B
330
1F
100
AcDbEntity
  8
0
  6
Continuous
 62
     7
100
AcDbCircle
 10
-136.6499999999999
 20
215.0105516132642
 30
0.0
 40
0.5
100
AcDbArc
 50
270.0
 51
0.0
  0
ARC
  5
59C
330
1F
100
AcDbEntity
  8
0
  6
Continuous
 62
     7
100
AcDbCircle
 10
-134.3000000000001
 20
217.0105516132643
 30
0.0
 40
0.5
100
AcDbArc
 50
180.0
 51
270.0
  0
ARC
  5
59D
330
1F
100
AcDbEntity
  8
0
  6
Continuous
 62
     7
100
AcDbCircle
 10
-136.8
 20
217.0105516132643
 30
0.0
 40
0.5
100
AcDbArc
 50
270.0
 51
0.0
  0
ARC
  5
59E
330
1F
100
AcDbEntity
  8
0
  6
Continuous
 62
     7
100
AcDbCircle
 10
-129.1500000000001
 20
216.0105516132641
 30
0.0
 40
0.5
100
AcDbArc
 50
0.0
 51
90.0
  0
ARC
  5
59F
330
1F
100
AcDbEntity
  8
0
  6
Continuous
 62
     7
100
AcDbCircle
 10
-128.1500000000001
 20
215.0105516132641
 30
0.0
 40
0.5
100
AcDbArc
 50
180.0
 51
270.0
  0
ARC
  5
5A0
330
1F
100
AcDbEntity
  8
0
  6
Continuous
 62
     7
100
AcDbCircle
 10
-125.8000000000001
 20
215.0105516132641
 30
0.0
 40
0.5
100
AcDbArc
 50
270.0
 51
0.0
  0
ARC
  5
5A1
330
1F
100
AcDbEntity
  8
0
  6
Continuous
 62
     7
100
AcDbCircle
 10
-123.8000000000001
 20
221.8105516132636
 30
0.0
 40
0.5
100
AcDbArc
 50
180.0
 51
270.0
  0
ARC
  5
5A2
330
1F
100
AcDbEntity
  8
0
  6
Continuous
 62
     7
100
AcDbCircle
 10
-128.0500000000001
 20
217.0105516132643
 30
0.0
 40
0.5
100
AcDbArc
 50
270.0
 51
0.0
  0
ARC
  5
5A3
330
1F
100
AcDbEntity
  8
0
  6
Continuous
 62
     7
100
AcDbCircle
 10
-121.9500000000001
 20
241.0105516132639
 30
0.0
 40
0.5000000000000995
100
AcDbArc
 50
0.0
 51
89.9999999999886
  0
ARC
  5
5A4
330
1F
100
AcDbEntity
  8
0
  6
Continuous
 62
     7
100
AcDbCircle
 10
-122.0500000000001
 20
239.0105516132643
 30
0.0
 40
0.4999999999996021
100
AcDbArc
 50
90.0
 51
180.0
  0
ARC
  5
5A5
330
1F
100
AcDbEntity
  8
0
  6
Continuous
 62
     7
100
AcDbCircle
 10
-126.3000000000001
 20
234.2105516132641
 30
0.0
 40
0.5
100
AcDbArc
 50
0.0
 51
90.0
  0
ARC
  5
5A6
330
1F
100
AcDbEntity
  8
0
  6
Continuous
 62
     7
100
AcDbCircle
 10
-129.1000000000001
 20
238.8105516132643
 30
0.0
 40
1.299999999999983
100
AcDbArc
 50
270.0
 51
90.0
  0
ARC
  5
5A7
330
1F
100
AcDbEntity
  8
0
  6
Continuous
 62
     7
100
AcDbCircle
 10
-129.1000000000001
 20
238.8105516132643
 30
0.0
 40
1.300000000000011
100
AcDbArc
 50
90.0
 51
270.0
  0
ARC
  5
5A8
330
1F
100
AcDbEntity
  8
0
  6
Continuous
 62
     7
100
AcDbCircle
 10
-126.3000000000001
 20
232.2105516132639
 30
0.0
 40
0.5
100
AcDbArc
 50
0.0
 51
90.0
  0
ARC
  5
5A9
330
1F
100
AcDbEntity
  8
0
  6
Continuous
 62
     7
100
AcDbCircle
 10
-143.0500000000001
 20
215.0105516132642
 30
0.0
 40
0.5
100
AcDbArc
 50
180.0
 51
270.0
  0
ARC
  5
5AA
330
1F
100
AcDbEntity
  8
0
  6
Continuous
 62
     7
100
AcDbCircle
 10
-144.0500000000001
 20
216.0105516132641
 30
0.0
 40
0.5
100
AcDbArc
 50
0.0
 51
90.0
  0
ARC
  5
5AB
330
1F
100
AcDbEntity
  8
0
  6
Continuous
 62
     7
100
AcDbCircle
 10
-147.0057636860284
 20
239.910551613264
 30
0.0
 40
0.0999999999999279
100
AcDbArc
 50
312.2368356758165
 51
90.0
  0
ARC
  5
5AC
330
1F
100
AcDbEntity
  8
0
  6
Continuous
 62
     7
100
AcDbCircle
 10
-146.8098604749458
 20
239.560551613264
 30
0.0
 40
0.3000000000000272
100
AcDbArc
 50
120.6685790313618
 51
165.2693233974138
  0
ARC
  5
5AD
330
1F
100
AcDbEntity
  8
0
  6
Continuous
 62
     7
100
AcDbCircle
 10
-146.8098604749458
 20
239.560551613264
 30
0.0
 40
0.3000000000000136
100
AcDbArc
 50
194.7306766026807
 51
294.9999999999926
  0
ARC
  5
5AE
330
1F
100
AcDbEntity
  8
0
  6
Continuous
 62
     7
100
AcDbCircle
 10
-146.8098604749458
 20
236.460551613264
 30
0.0
 40
0.3000000000000126
100
AcDbArc
 50
65.0000000000074
 51
165.2693233973561
  0
ARC
  5
5AF
330
1F
100
AcDbEntity
  8
0
  6
Continuous
 62
     7
100
AcDbCircle
 10
-146.8098604749458
 20
216.460551613264
 30
0.0
 40
0.3000000000000126
100
AcDbArc
 50
65.0000000000074
 51
165.2693233973561
  0
ARC
  5
5B0
330
1F
100
AcDbEntity
  8
0
  6
Continuous
 62
     7
100
AcDbCircle
 10
-146.8098604749458
 20
219.560551613264
 30
0.0
 40
0.2999999999999125
100
AcDbArc
 50
194.7306766026072
 51
294.9999999999926
  0
ARC
  5
5B1
330
1F
100
AcDbEntity
  8
0
  6
Continuous
 62
     7
100
AcDbCircle
 10
-147.0057636860284
 20
216.1105516132641
 30
0.0
 40
0.0999999999997101
100
AcDbArc
 50
270.0
 51
47.76316432397423
  0
ARC
  5
5B2
330
1F
100
AcDbEntity
  8
0
  6
Continuous
 62
     7
100
AcDbCircle
 10
-147.0057636860284
 20
219.9105516132641
 30
0.0
 40
0.0999999999999279
100
AcDbArc
 50
312.2368356758165
 51
90.0
  0
ARC
  5
5B3
330
1F
100
AcDbEntity
  8
0
  6
Continuous
 62
     7
100
AcDbCircle
 10
-146.8098604749458
 20
216.460551613264
 30
0.0
 40
0.3000000000000064
100
AcDbArc
 50
194.7306766026755
 51
239.3314209686979
  0
ARC
  5
5B4
330
1F
100
AcDbEntity
  8
0
  6
Continuous
 62
     7
100
AcDbCircle
 10
-146.8098604749458
 20
219.560551613264
 30
0.0
 40
0.3000000000000272
100
AcDbArc
 50
120.6685790313618
 51
165.2693233973613
  0
ARC
  5
5B5
330
1F
100
AcDbEntity
  8
0
  6
Continuous
 62
     7
100
AcDbCircle
 10
-146.8098604749458
 20
236.460551613264
 30
0.0
 40
0.3000000000000064
100
AcDbArc
 50
194.7306766026755
 51
239.3314209686792
  0
ARC
  5
5B6
330
1F
100
AcDbEntity
  8
0
  6
Continuous
 62
     7
100
AcDbCircle
 10
-147.0057636860284
 20
236.1105516132641
 30
0.0
 40
0.100000000000108
100
AcDbArc
 50
270.0
 51
47.76316432397423
  0
ARC
  5
5B7
330
1F
100
AcDbEntity
  8
0
  6
Continuous
 62
     7
100
AcDbCircle
 10
-143.0500000000001
 20
217.0105516132643
 30
0.0
 40
0.5
100
AcDbArc
 50
180.0
 51
270.0
  0
ARC
  5
5B8
330
1F
100
AcDbEntity
  8
0
  6
Continuous
 62
     7
100
AcDbCircle
 10
-145.1000000000001
 20
234.2105516132641
 30
0.0
 40
0.5
100
AcDbArc
 50
90.0
 51
180.0
  0
ARC
  5
5B9
330
1F
100
AcDbEntity
  8
0
  6
Continuous
 62
     7
100
AcDbCircle
 10
-123.8000000000001
 20
223.8105516132634
 30
0.0
 40
0.5
100
AcDbArc
 50
180.0
 51
270.0
  0
ARC
  5
5BA
330
1F
100
AcDbEntity
  8
0
  6
Continuous
 62
     7
100
AcDbCircle
 10
-124.3000000000001
 20
241.0105516132639
 30
0.0
 40
0.5
100
AcDbArc
 50
90.0
 51
180.0
  0
ARC
  5
5BB
330
1F
100
AcDbEntity
  8
0
  6
Continuous
 62
     7
100
AcDbCircle
 10
-113.45
 20
241.0105516132639
 30
0.0
 40
0.5
100
AcDbArc
 50
90.0
 51
180.0
  0
ARC
  5
5BC
330
1F
100
AcDbEntity
  8
0
  6
Continuous
 62
     7
100
AcDbCircle
 10
-102.3
 20
238.5311107503112
 30
0.0
 40
0.1999999999999804
100
AcDbArc
 50
282.5000000002283
 51
0.0
  0
ARC
  5
5BD
330
1F
100
AcDbEntity
  8
0
  6
Continuous
 62
     7
100
AcDbCircle
 10
-102.3
 20
239.1466144978408
 30
0.0
 40
0.2000000000000028
100
AcDbArc
 50
0.0
 51
114.9999999998361
  0
ARC
  5
5BE
330
1F
100
AcDbEntity
  8
0
  6
Continuous
 62
     7
100
AcDbCircle
 10
-102.3
 20
236.8744887286875
 30
0.0
 40
0.1999999999997228
100
AcDbArc
 50
244.9999999999453
 51
359.9999999999674
  0
ARC
  5
5BF
330
1F
100
AcDbEntity
  8
0
  6
Continuous
 62
     7
100
AcDbCircle
 10
-102.3
 20
237.4899924762167
 30
0.0
 40
0.2000000000001023
100
AcDbArc
 50
0.00000000017099
 51
77.50000000003126
  0
ARC
  5
5C0
330
1F
100
AcDbEntity
  8
0
  6
Continuous
 62
     7
100
AcDbCircle
 10
-102.3
 20
219.1466144978404
 30
0.0
 40
0.2000000000000028
100
AcDbArc
 50
0.0
 51
115.000000000086
  0
ARC
  5
5C1
330
1F
100
AcDbEntity
  8
0
  6
Continuous
 62
     7
100
AcDbCircle
 10
-102.3
 20
218.5311107503112
 30
0.0
 40
0.1999999999999593
100
AcDbArc
 50
282.4999999999378
 51
0.0
  0
ARC
  5
5C2
330
1F
100
AcDbEntity
  8
0
  6
Continuous
 62
     7
100
AcDbCircle
 10
-102.3
 20
216.8744887286875
 30
0.0
 40
0.2000000000000834
100
AcDbArc
 50
244.9999999999935
 51
359.9999999999674
  0
ARC
  5
5C3
330
1F
100
AcDbEntity
  8
0
  6
Continuous
 62
     7
100
AcDbCircle
 10
-102.3
 20
217.4899924762167
 30
0.0
 40
0.2000000000000028
100
AcDbArc
 50
0.0
 51
77.4999999997995
  0
ARC
  5
5C4
330
1F
100
AcDbEntity
  8
0
  6
Continuous
 62
     7
100
AcDbCircle
 10
-102.8
 20
239.3548118363483
 30
0.0
 40
0.2000000000000028
100
AcDbArc
 50
180.000000000114
 51
295.0000000000306
  0
ARC
  5
5C5
330
1F
100
AcDbEntity
  8
0
  6
Continuous
 62
     7
100
AcDbCircle
 10
-102.8
 20
236.6662913901799
 30
0.0
 40
0.2000000000000413
100
AcDbArc
 50
65.0000000000193
 51
180.0
  0
ARC
  5
5C6
330
1F
100
AcDbEntity
  8
0
  6
Continuous
 62
     7
100
AcDbCircle
 10
-102.8000000000001
 20
216.66629139018
 30
0.0
 40
0.2000000000000061
100
AcDbArc
 50
64.99999999998315
 51
180.0000000000244
  0
ARC
  5
5C7
330
1F
100
AcDbEntity
  8
0
  6
Continuous
 62
     7
100
AcDbCircle
 10
-102.8000000000001
 20
219.3548118363479
 30
0.0
 40
0.2000000000000028
100
AcDbArc
 50
180.0
 51
294.9999999999807
  0
ARC
  5
5C8
330
1F
100
AcDbEntity
  8
0
  6
Continuous
 62
     7
100
AcDbCircle
 10
-106.0500000000001
 20
240.0105516132638
 30
0.0
 40
0.5
100
AcDbArc
 50
180.0
 51
270.0
  0
ARC
  5
5C9
330
1F
100
AcDbEntity
  8
0
  6
Continuous
 62
     7
100
AcDbCircle
 10
-107.0500000000001
 20
241.0105516132639
 30
0.0
 40
0.5
100
AcDbArc
 50
0.0
 51
90.0
  0
ARC
  5
5CA
330
1F
100
AcDbEntity
  8
0
  6
Continuous
 62
     7
100
AcDbCircle
 10
-107.6000000000001
 20
239.010551613264
 30
0.0
 40
0.5
100
AcDbArc
 50
0.0
 51
90.0
  0
ARC
  5
5CB
330
1F
100
AcDbEntity
  8
0
  6
Continuous
 62
     7
100
AcDbCircle
 10
-102.8
 20
238.0105516132639
 30
0.0
 40
0.2000000000000675
100
AcDbArc
 50
102.4999999998142
 51
257.4999999999488
  0
ARC
  5
5CC
330
1F
100
AcDbEntity
  8
0
  6
Continuous
 62
     7
100
AcDbCircle
 10
-102.8
 20
218.0105516132639
 30
0.0
 40
0.2000000000006468
100
AcDbArc
 50
102.4999999999233
 51
257.5000000002362
  0
ARC
  5
5CD
330
1F
100
AcDbEntity
  8
0
  6
Continuous
 62
     7
100
AcDbCircle
 10
-114.45
 20
240.0105516132638
 30
0.0
 40
0.5
100
AcDbArc
 50
270.0
 51
0.0
  0
ARC
  5
5CE
330
1F
100
AcDbEntity
  8
0
  6
Continuous
 62
     7
100
AcDbCircle
 10
-113.3
 20
239.0105516132639
 30
0.0
 40
0.5
100
AcDbArc
 50
90.0
 51
180.0
  0
ARC
  5
5CF
330
1F
100
AcDbEntity
  8
0
  6
Continuous
 62
     7
100
AcDbCircle
 10
-115.8000000000001
 20
239.0105516132639
 30
0.0
 40
0.5
100
AcDbArc
 50
0.0
 51
90.0
  0
ARC
  5
5D0
330
1F
100
AcDbEntity
  8
0
  6
Continuous
 62
     7
100
AcDbCircle
 10
-120.9500000000001
 20
240.0105516132639
 30
0.0
 40
0.4999999999999005
100
AcDbArc
 50
180.0
 51
270.0
  0
ARC
  5
5D1
330
1F
100
AcDbEntity
  8
0
  6
Continuous
 62
     7
100
AcDbCircle
 10
-105.0000000000001
 20
221.8105516132636
 30
0.0
 40
0.5
100
AcDbArc
 50
270.0
 51
0.0
  0
CIRCLE
  5
5D2
330
1F
100
AcDbEntity
  8
0
  6
Continuous
 62
     7
100
AcDbCircle
 10
-129.1000000000002
 20
80.65935674649461
 30
0.0
 40
1.299999999999997
  0
CIRCLE
  5
5D3
330
1F
100
AcDbEntity
  8
0
  6
Continuous
 62
     7
100
AcDbCircle
 10
-129.1000000000002
 20
80.65935674649461
 30
0.0
 40
1.575000000000017
  0
CIRCLE
  5
5D4
330
1F
100
AcDbEntity
  8
0
  6
Continuous
 62
     7
100
AcDbCircle
 10
-121.0000000000001
 20
102.259356746495
 30
0.0
 40
1.575000000000003
  0
CIRCLE
  5
5D5
330
1F
100
AcDbEntity
  8
0
  6
Continuous
 62
     7
100
AcDbCircle
 10
-121.0000000000001
 20
102.259356746495
 30
0.0
 40
1.299999999999997
  0
CIRCLE
  5
5D6
330
1F
100
AcDbEntity
  8
0
  6
Continuous
 62
     7
100
AcDbCircle
 10
-138.1000000000001
 20
80.65935674649461
 30
0.0
 40
1.575000000000017
  0
CIRCLE
  5
5D7
330
1F
100
AcDbEntity
  8
0
  6
Continuous
 62
     7
100
AcDbCircle
 10
-142.6000000000001
 20
81.45935674649459
 30
0.0
 40
1.300000000000011
  0
CIRCLE
  5
5D8
330
1F
100
AcDbEntity
  8
0
  6
Continuous
 62
     7
100
AcDbCircle
 10
-138.1000000000001
 20
80.65935674649461
 30
0.0
 40
1.299999999999898
  0
CIRCLE
  5
5D9
330
1F
100
AcDbEntity
  8
0
  6
Continuous
 62
     7
100
AcDbCircle
 10
-133.6000000000001
 20
81.4593567464945
 30
0.0
 40
1.575000000000017
  0
CIRCLE
  5
5DA
330
1F
100
AcDbEntity
  8
0
  6
Continuous
 62
     7
100
AcDbCircle
 10
-142.6000000000001
 20
81.45935674649459
 30
0.0
 40
1.574999999999932
  0
CIRCLE
  5
5DB
330
1F
100
AcDbEntity
  8
0
  6
Continuous
 62
     7
100
AcDbCircle
 10
-133.6000000000001
 20
81.4593567464945
 30
0.0
 40
1.300000000000011
  0
CIRCLE
  5
5DC
330
1F
100
AcDbEntity
  8
0
  6
Continuous
 62
     7
100
AcDbCircle
 10
-116.5000000000001
 20
101.459356746495
 30
0.0
 40
1.299999999999997
  0
CIRCLE
  5
5DD
330
1F
100
AcDbEntity
  8
0
  6
Continuous
 62
     7
100
AcDbCircle
 10
-112.0000000000001
 20
102.259356746495
 30
0.0
 40
1.299999999999997
  0
CIRCLE
  5
5DE
330
1F
100
AcDbEntity
  8
0
  6
Continuous
 62
     7
100
AcDbCircle
 10
-107.5000000000001
 20
101.459356746495
 30
0.0
 40
1.299999999999997
  0
CIRCLE
  5
5DF
330
1F
100
AcDbEntity
  8
0
  6
Continuous
 62
     7
100
AcDbCircle
 10
-107.5000000000001
 20
101.459356746495
 30
0.0
 40
1.575000000000003
  0
CIRCLE
  5
5E0
330
1F
100
AcDbEntity
  8
0
  6
Continuous
 62
     7
100
AcDbCircle
 10
-116.5000000000001
 20
101.459356746495
 30
0.0
 40
1.575000000000003
  0
CIRCLE
  5
5E1
330
1F
100
AcDbEntity
  8
0
  6
Continuous
 62
     7
100
AcDbCircle
 10
-112.0000000000001
 20
102.259356746495
 30
0.0
 40
1.575000000000003
  0
CIRCLE
  5
5E2
330
1F
100
AcDbEntity
  8
0
  6
Continuous
 62
     7
100
AcDbCircle
 10
-133.6
 20
238.0105516132643
 30
0.0
 40
1.950000000000216
  0
CIRCLE
  5
5E3
330
1F
100
AcDbEntity
  8
0
  6
Continuous
 62
     7
100
AcDbCircle
 10
-142.6
 20
238.0105516132643
 30
0.0
 40
1.950000000000216
  0
CIRCLE
  5
5E4
330
1F
100
AcDbEntity
  8
0
  6
Continuous
 62
     7
100
AcDbCircle
 10
-138.1000000000001
 20
238.8105516132643
 30
0.0
 40
1.950000000000102
  0
CIRCLE
  5
5E5
330
1F
100
AcDbEntity
  8
0
  6
Continuous
 62
     7
100
AcDbCircle
 10
-121.0000000000001
 20
217.210551613264
 30
0.0
 40
1.300000000000011
  0
CIRCLE
  5
5E6
330
1F
100
AcDbEntity
  8
0
  6
Continuous
 62
     7
100
AcDbCircle
 10
-121.0000000000001
 20
217.210551613264
 30
0.0
 40
1.950000000000017
  0
CIRCLE
  5
5E7
330
1F
100
AcDbEntity
  8
0
  6
Continuous
 62
     7
100
AcDbCircle
 10
-133.6
 20
238.0105516132643
 30
0.0
 40
1.299999999999983
  0
CIRCLE
  5
5E8
330
1F
100
AcDbEntity
  8
0
  6
Continuous
 62
     7
100
AcDbCircle
 10
-116.5000000000001
 20
218.010551613264
 30
0.0
 40
1.300000000000011
  0
CIRCLE
  5
5E9
330
1F
100
AcDbEntity
  8
0
  6
Continuous
 62
     7
100
AcDbCircle
 10
-107.5000000000001
 20
218.010551613264
 30
0.0
 40
1.300000000000097
  0
CIRCLE
  5
5EA
330
1F
100
AcDbEntity
  8
0
  6
Continuous
 62
     7
100
AcDbCircle
 10
-112.0000000000001
 20
217.210551613264
 30
0.0
 40
1.300000000000011
  0
CIRCLE
  5
5EB
330
1F
100
AcDbEntity
  8
0
  6
Continuous
 62
     7
100
AcDbCircle
 10
-116.5000000000001
 20
218.010551613264
 30
0.0
 40
1.949999999999989
  0
CIRCLE
  5
5EC
330
1F
100
AcDbEntity
  8
0
  6
Continuous
 62
     7
100
AcDbCircle
 10
-107.5000000000001
 20
218.010551613264
 30
0.0
 40
1.950000000000301
  0
CIRCLE
  5
5ED
330
1F
100
AcDbEntity
  8
0
  6
Continuous
 62
     7
100
AcDbCircle
 10
-112.0000000000001
 20
217.210551613264
 30
0.0
 40
1.950000000000017
  0
CIRCLE
  5
5EE
330
1F
100
AcDbEntity
  8
0
  6
Continuous
 62
     7
100
AcDbCircle
 10
-129.1000000000001
 20
238.8105516132643
 30
0.0
 40
1.950000000000188
  0
SPLINE
  5
5EF
330
1F
100
AcDbEntity
  8
0
  6
DASHED
 62
     7
100
AcDbSpline
210
0.0
220
0.0
230
1.0
 70
     8
 71
     3
 72
    11
 73
     7
 74
     5
 42
0.000000001
 43
0.0000000001
 44
0.00000001
 40
0.0
 40
0.0
 40
0.0
 40
0.0
 40
0.4429293085455155
 40
0.8643236247857559
 40
1.308555539072009
 40
1.728646439332764
 40
1.728646439332764
 40
1.728646439332764
 40
1.728646439332764
 10
-49.99999999999986
 20
152.2018088724988
 30
0.0
 10
-49.85476932416638
 20
152.2283896670673
 30
0.0
 10
-49.57136901498605
 20
152.2802589263499
 30
0.0
 10
-49.14237863797525
 20
152.3591563184071
 30
0.0
 10
-48.72092755646732
 20
152.4369595583441
 30
0.0
 10
-48.43767202337654
 20
152.4896122769698
 30
0.0
 10
-48.29999999999987
 20
152.5152033338098
 30
0.0
 11
-49.99999999999986
 21
152.2018088724988
 31
0.0
 11
-49.56431971909986
 21
152.2816152958257
 31
0.0
 11
-49.14987390838272
 21
152.3578244799495
 31
0.0
 11
-48.71303137488668
 21
152.4385127356506
 31
0.0
 11
-48.29999999999987
 21
152.5152033338098
 31
0.0
  0
SPLINE
  5
5F0
330
1F
100
AcDbEntity
  8
0
  6
DASHED
 62
     7
100
AcDbSpline
210
0.0
220
0.0
230
1.0
 70
     8
 71
     3
 72
    11
 73
     7
 74
     5
 42
0.000000001
 43
0.0000000001
 44
0.00000001
 40
0.0
 40
0.0
 40
0.0
 40
0.0
 40
0.4429293085455518
 40
0.8643236247857833
 40
1.308555539072652
 40
1.728646439337572
 40
1.728646439337572
 40
1.728646439337572
 40
1.728646439337572
 10
-68.19999999999985
 20
152.2018088724988
 30
0.0
 10
-68.34523067583333
 20
152.2283896670674
 30
0.0
 10
-68.62863098501363
 20
152.2802589263501
 30
0.0
 10
-69.05762136202473
 20
152.3591563184069
 30
0.0
 10
-69.47907244353391
 20
152.4369595583458
 30
0.0
 10
-69.7623279766284
 20
152.4896122769604
 30
0.0
 10
-69.90000000000745
 20
152.5152033337951
 30
0.0
 11
-68.19999999999985
 21
152.2018088724988
 31
0.0
 11
-68.63568028089986
 21
152.2816152958258
 31
0.0
 11
-69.05012609161699
 21
152.3578244799496
 31
0.0
 11
-69.48696862511399
 21
152.4385127356489
 31
0.0
 11
-69.90000000000745
 21
152.5152033337951
 31
0.0
  0
SPLINE
  5
5F1
330
1F
100
AcDbEntity
  8
0
  6
DASHED
 62
     7
100
AcDbSpline
210
0.0
220
0.0
230
1.0
 70
     8
 71
     3
 72
    11
 73
     7
 74
     5
 42
0.000000001
 43
0.0000000001
 44
0.00000001
 40
0.0
 40
0.0
 40
0.0
 40
0.0
 40
0.420083844688525
 40
0.8643237627953636
 40
1.285708269886686
 40
1.728646439332857
 40
1.728646439332857
 40
1.728646439332857
 40
1.728646439332857
 10
-69.89999999999989
 20
155.1671336733389
 30
0.0
 10
-69.76233028898605
 20
155.1927243009767
 30
0.0
 10
-69.47907444536918
 20
155.2453770786194
 30
0.0
 10
-69.05762626878808
 20
155.3231797843829
 30
0.0
 10
-68.62863357924053
 20
155.4020776047009
 30
0.0
 10
-68.34523358112868
 20
155.4539468079034
 30
0.0
 10
-68.1999999999999
 20
155.4805281346499
 30
0.0
 11
-69.89999999999989
 21
155.1671336733389
 31
0.0
 11
-69.48697556273632
 21
155.2438229867823
 31
0.0
 11
-69.05012515906671
 21
155.3245126990272
 31
0.0
 11
-68.63568899625102
 21
155.4007201118781
 31
0.0
 11
-68.1999999999999
 21
155.4805281346499
 31
0.0
  0
SPLINE
  5
5F2
330
1F
100
AcDbEntity
  8
0
  6
Continuous
 62
     7
100
AcDbSpline
210
0.0
220
0.0
230
1.0
 70
     8
 71
     3
 72
    13
 73
     9
 74
     7
 42
0.000000001
 43
0.0000000001
 44
0.00000001
 40
0.0
 40
0.0
 40
0.0
 40
0.0
 40
0.1296017749118015
 40
0.2519543297182061
 40
0.3606123325018914
 40
0.4509097422741252
 40
0.52154992278292
 40
0.5777955022702476
 40
0.5777955022702476
 40
0.5777955022702476
 40
0.5777955022702476
 10
-126.6000000000002
 20
187.6411685035739
 30
0.0
 10
-126.6013156648525
 20
187.6844032931085
 30
0.0
 10
-126.6038734019234
 20
187.7684545524461
 30
0.0
 10
-126.6243573724247
 20
187.8871587770874
 30
0.0
 10
-126.6555585354235
 20
187.9904550544238
 30
0.0
 10
-126.696815185077
 20
188.0696943993427
 30
0.0
 10
-126.7460409606871
 20
188.1279952247684
 30
0.0
 10
-126.7883514832528
 20
188.137122566278
 30
0.0
 10
-126.8071067811867
 20
188.1411685035739
 30
0.0
 11
-126.6000000000002
 21
187.6411685035739
 31
0.0
 11
-126.6070570457735
 21
187.7705779916239
 31
0.0
 11
-126.6277470473831
 21
187.891168503574
 31
0.0
 11
-126.6606602108235
 21
187.9947217999078
 31
0.0
 11
-126.7035533905934
 21
188.0741812054661
 31
0.0
 11
-126.7535036161367
 21
188.1241312879577
 31
0.0
 11
-126.8071067811867
 21
188.1411685035739
 31
0.0
  0
SPLINE
  5
5F3
330
1F
100
AcDbEntity
  8
0
  6
Continuous
 62
     7
100
AcDbSpline
210
0.0
220
0.0
230
1.0
 70
     8
 71
     3
 72
    13
 73
     9
 74
     7
 42
0.000000001
 43
0.0000000001
 44
0.00000001
 40
0.0
 40
0.0
 40
0.0
 40
0.0
 40
0.1296017749118015
 40
0.2519543297182109
 40
0.3606123325018962
 40
0.4509097422741164
 40
0.5215499227829012
 40
0.5777955022702288
 40
0.5777955022702288
 40
0.5777955022702288
 40
0.5777955022702288
 10
-124.6000000000002
 20
187.6411685035739
 30
0.0
 10
-124.5986843351479
 20
187.6844032931086
 30
0.0
 10
-124.596126598077
 20
187.7684545524461
 30
0.0
 10
-124.5756426275757
 20
187.8871587770874
 30
0.0
 10
-124.5444414645768
 20
187.9904550544237
 30
0.0
 10
-124.5031848149234
 20
188.0696943993427
 30
0.0
 10
-124.4539590393133
 20
188.1279952247684
 30
0.0
 10
-124.4116485167476
 20
188.137122566278
 30
0.0
 10
-124.3928932188137
 20
188.1411685035739
 30
0.0
 11
-124.6000000000002
 21
187.6411685035739
 31
0.0
 11
-124.5929429542269
 21
187.7705779916239
 31
0.0
 11
-124.5722529526172
 21
187.891168503574
 31
0.0
 11
-124.5393397891769
 21
187.9947217999078
 31
0.0
 11
-124.4964466094069
 21
188.0741812054661
 31
0.0
 11
-124.4464963838637
 21
188.1241312879577
 31
0.0
 11
-124.3928932188137
 21
188.1411685035739
 31
0.0
  0
ARC
  5
5F4
102
{ACAD_REACTORS
330
640
102
}
330
1F
100
AcDbEntity
  8
1
  6
Continuous
 62
     7
100
AcDbCircle
 10
-18.32369931125732
 20
12.83333333333326
 30
0.0
 40
0.1666666666666997
100
AcDbArc
 50
209.999999999964
 51
330.000000000025
  0
ARC
  5
5F5
102
{ACAD_REACTORS
330
641
102
}
330
1F
100
AcDbEntity
  8
1
  6
Continuous
 62
     7
100
AcDbCircle
 10
-20.65703264459071
 20
10.2700211480327
 30
0.0
 40
0.666666666666611
100
AcDbArc
 50
180.0000000000104
 51
240.0183606311596
  0
ARC
  5
5F6
330
1F
100
AcDbEntity
  8
1
  6
Continuous
 62
     7
100
AcDbCircle
 10
-26.65684751081722
 20
12.5
 30
0.0
 40
0.1666666666666247
100
AcDbArc
 50
119.9816393688951
 51
240.0183606311253
  0
ARC
  5
5F7
330
1F
100
AcDbEntity
  8
1
  6
Continuous
 62
     7
100
AcDbCircle
 10
-9.99055111169741
 20
12.5
 30
0.0
 40
0.166666666666687
100
AcDbArc
 50
299.9816393688503
 51
60.01836063112923
  0
ARC
  5
5F8
102
{ACAD_REACTORS
330
642
102
}
330
1F
100
AcDbEntity
  8
1
  6
Continuous
 62
     7
100
AcDbCircle
 10
-15.65703264459071
 20
14.92250016016737
 30
0.0
 40
0.3333333333334157
100
AcDbArc
 50
60.01836063113725
 51
180.0
  0
ARC
  5
5F9
102
{ACAD_REACTORS
330
642
102
}
330
1F
100
AcDbEntity
  8
1
  6
Continuous
 62
     7
100
AcDbCircle
 10
-15.65703264459071
 20
10.07749983983263
 30
0.0
 40
0.3333333333332096
100
AcDbArc
 50
180.0
 51
299.9816393688628
  0
ARC
  5
5FA
330
1F
100
AcDbEntity
  8
1
  6
Continuous
 62
     4
100
AcDbCircle
 10
-127.6749102551017
 20
161.4401891791087
 30
0.0
 40
0.0490206755354687
100
AcDbArc
 50
209.9816393692682
 51
330.0183606310411
  0
ARC
  5
5FB
330
1F
100
AcDbEntity
  8
1
  6
Continuous
 62
     4
100
AcDbCircle
 10
-127.6749102551017
 20
166.342147828038
 30
0.0
 40
0.049020675535373
100
AcDbArc
 50
29.98163936864238
 51
150.0183606310483
  0
MTEXT
  5
5FD
330
1F
100
AcDbEntity
  8
1
 62
     7
100
AcDbMText
 10
-136.2500000000001
 20
235.9105516132641
 30
0.0
 40
2.0
 41
0.0
 71
     5
 72
     1
  1
A
  7
CONVERTER_11
 73
     1
 44
1.32052821128451
  0
MTEXT
  5
5FE
330
1F
100
AcDbEntity
  8
1
 62
     7
100
AcDbMText
 10
-113.8500000000001
 20
220.110551613264
 30
0.0
 40
2.0
 41
0.0
 71
     5
 72
     1
  1
B
  7
CONVERTER_11
 73
     1
 44
1.32052821128451
  0
MTEXT
  5
5FF
330
1F
100
AcDbEntity
  8
1
 62
     7
100
AcDbMText
 10
-143.9250000000001
 20
91.4593567464947
 30
0.0
 40
2.0
 41
0.0
 71
     5
 72
     1
  1
A
  7
CONVERTER_11
 73
     1
 44
1.32052821128451
  0
MTEXT
  5
600
330
1F
100
AcDbEntity
  8
1
 62
     7
100
AcDbMText
 10
-106.1750000000001
 20
91.4593567464947
 30
0.0
 40
2.0
 41
0.0
 71
     5
 72
     1
  1
B
  7
CONVERTER_11
 73
     1
 44
1.32052821128451
  0
MTEXT
  5
601
330
1F
100
AcDbEntity
  8
1
 62
     7
100
AcDbMText
 10
-138.1
 20
84.95935674649488
 30
0.0
 40
1.5
 41
0.0
 71
     5
 72
     1
  1
2
  7
CONVERTER_11
 73
     1
 44
1.32052821128451
  0
MTEXT
  5
603
330
1F
100
AcDbEntity
  8
1
 62
     7
100
AcDbMText
 10
-152.72
 20
12.5
 30
0.0
 40
4.5
 41
0.0
 71
     4
 72
     1
  1
CX 02 JF\Pfemale modular 2xRJ45 + 8P 10A 250V
  7
CONVERTER_12
 73
     1
 44
0.90036014405762
  0
MTEXT
  5
604
330
1F
100
AcDbEntity
  8
1
 62
     7
100
AcDbMText
 10
-133.6
 20
84.95935674649488
 30
0.0
 40
1.5
 41
0.0
 71
     5
 72
     1
  1
3
  7
CONVERTER_11
 73
     1
 44
1.32052821128451
  0
MTEXT
  5
605
330
1F
100
AcDbEntity
  8
1
 62
     7
100
AcDbMText
 10
-129.1
 20
84.95935674649488
 30
0.0
 40
1.5
 41
0.0
 71
     5
 72
     1
  1
4
  7
CONVERTER_11
 73
     1
 44
1.32052821128451
  0
MTEXT
  5
606
330
1F
100
AcDbEntity
  8
1
 62
     7
100
AcDbMText
 10
-142.5499999999999
 20
84.95935674649488
 30
0.0
 40
1.5
 41
0.0
 71
     5
 72
     1
  1
1
  7
CONVERTER_11
 73
     1
 44
1.32052821128451
  0
MTEXT
  5
607
330
1F
100
AcDbEntity
  8
1
 62
     7
100
AcDbMText
 10
-121.0
 20
97.95935674649539
 30
0.0
 40
1.5
 41
0.0
 71
     5
 72
     1
  1
5
  7
CONVERTER_11
 73
     1
 44
1.32052821128451
  0
MTEXT
  5
608
330
1F
100
AcDbEntity
  8
1
 62
     7
100
AcDbMText
 10
-116.5500000000001
 20
97.95935674649539
 30
0.0
 40
1.5
 41
0.0
 71
     5
 72
     1
  1
6
  7
CONVERTER_11
 73
     1
 44
1.32052821128451
  0
MTEXT
  5
609
330
1F
100
AcDbEntity
  8
1
 62
     7
100
AcDbMText
 10
-112.0500000000001
 20
97.95935674649539
 30
0.0
 40
1.5
 41
0.0
 71
     5
 72
     1
  1
7
  7
CONVERTER_11
 73
     1
 44
1.32052821128451
  0
MTEXT
  5
60A
330
1F
100
AcDbEntity
  8
1
 62
     7
100
AcDbMText
 10
-107.5500000000001
 20
97.95935674649539
 30
0.0
 40
1.5
 41
0.0
 71
     5
 72
     1
  1
8
  7
CONVERTER_11
 73
     1
 44
1.32052821128451
  0
MTEXT
  5
60B
330
1F
100
AcDbEntity
  8
1
 62
     7
100
AcDbMText
 10
-144.0999999999999
 20
240.9105516132644
 30
0.0
 40
1.5
 41
0.0
 71
     5
 72
     1
  1
1
  7
CONVERTER_11
 73
     1
 44
1.32052821128451
  0
MTEXT
  5
60C
330
1F
100
AcDbEntity
  8
1
 62
     7
100
AcDbMText
 10
-140.4499999999999
 20
240.9105516132644
 30
0.0
 40
1.5
 41
0.0
 71
     5
 72
     1
  1
2
  7
CONVERTER_11
 73
     1
 44
1.32052821128451
  0
MTEXT
  5
60D
330
1F
100
AcDbEntity
  8
1
 62
     7
100
AcDbMText
 10
-135.6499999999999
 20
240.9105516132644
 30
0.0
 40
1.5
 41
0.0
 71
     5
 72
     1
  1
3
  7
CONVERTER_11
 73
     1
 44
1.32052821128451
  0
MTEXT
  5
60E
330
1F
100
AcDbEntity
  8
1
 62
     7
100
AcDbMText
 10
-126.55
 20
240.9105516132644
 30
0.0
 40
1.5
 41
0.0
 71
     5
 72
     1
  1
4
  7
CONVERTER_11
 73
     1
 44
1.32052821128451
  0
MTEXT
  5
60F
330
1F
100
AcDbEntity
  8
1
 62
     7
100
AcDbMText
 10
-123.55
 20
215.1105516132642
 30
0.0
 40
1.5
 41
0.0
 71
     5
 72
     1
  1
5
  7
CONVERTER_11
 73
     1
 44
1.32052821128451
  0
MTEXT
  5
610
330
1F
100
AcDbEntity
  8
1
 62
     7
100
AcDbMText
 10
-114.5
 20
215.1105516132642
 30
0.0
 40
1.5
 41
0.0
 71
     5
 72
     1
  1
6
  7
CONVERTER_11
 73
     1
 44
1.32052821128451
  0
MTEXT
  5
611
330
1F
100
AcDbEntity
  8
1
 62
     7
100
AcDbMText
 10
-110.0
 20
215.1105516132642
 30
0.0
 40
1.5
 41
0.0
 71
     5
 72
     1
  1
7
  7
CONVERTER_11
 73
     1
 44
1.32052821128451
  0
MTEXT
  5
612
330
1F
100
AcDbEntity
  8
1
 62
     7
100
AcDbMText
 10
-106.0
 20
215.1105516132642
 30
0.0
 40
1.5
 41
0.0
 71
     5
 72
     1
  1
8
  7
CONVERTER_11
 73
     1
 44
1.32052821128451
  0
MTEXT
  5
613
330
1F
100
AcDbEntity
  8
1
 62
     7
100
AcDbMText
 10
-122.4250897448985
 20
168.0327546547535
 30
0.0
 40
2.0
 41
0.0
 71
     5
 72
     1
  1
J
  7
CONVERTER_11
 11
6.123232939436859E-17
 21
1.0
 31
0.0
 73
     1
 44
1.32052821128451
  0
MTEXT
  5
615
330
1F
100
AcDbEntity
  8
1
 62
     7
100
AcDbMText
 10
-112.9749102551016
 20
163.8911685035731
 30
0.0
 40
1.4
 41
0.0
 71
     5
 72
     1
  1
10A 250V 4kV 3
  7
CONVERTER_13
 11
0.0
 21
1.0
 31
0.0
 73
     1
 44
1.32052821128451
  0
MTEXT
  5
616
330
1F
100
AcDbEntity
  8
1
 62
     7
100
AcDbMText
 10
-122.4250897448985
 20
163.8911685035735
 30
0.0
 40
2.0
 41
0.0
 71
     5
 72
     1
  1
CX 02  F
  7
CONVERTER_11
 11
6.123232939436859E-17
 21
1.0
 31
0.0
 73
     1
 44
1.32052821128451
  0
MTEXT
  5
617
330
1F
100
AcDbEntity
  8
1
 62
     7
100
AcDbMText
 10
-194.0000000000001
 20
151.4999999999998
 30
0.0
 40
4.0
 41
0.0
 71
     5
 72
     1
  1
Diritti riservati      All rights reserved
  7
CONVERTER_12
 11
0.0
 21
1.0
 31
0.0
 73
     1
 44
1.32052821128451
  0
MTEXT
  5
618
330
1F
100
AcDbEntity
  8
1
 62
     7
100
AcDbMText
 10
-187.0
 20
16.26063942075597
 30
0.0
 40
3.0
 41
0.0
 71
     4
 72
     1
  1
Date
  7
CONVERTER_12
 73
     1
 44
1.32052821128451
  0
MTEXT
  5
619
330
1F
100
AcDbEntity
  8
1
 62
     7
100
AcDbMText
 10
-176.4
 20
16.26063942075597
 30
0.0
 40
3.0
 41
0.0
 71
     4
 72
     1
  1
06/11/06
  7
CONVERTER_12
 73
     1
 44
1.32052821128451
  0
MTEXT
  5
61A
330
1F
100
AcDbEntity
  8
1
 62
     7
100
AcDbMText
 10
-187.0
 20
8.74999999999999
 30
0.0
 40
3.0
 41
0.0
 71
     4
 72
     1
  1
Sign.
  7
CONVERTER_12
 73
     1
 44
1.32052821128451
  0
MTEXT
  5
61B
330
1F
100
AcDbEntity
  8
1
 62
     7
100
AcDbMText
 10
-176.4
 20
8.74999999999999
 30
0.0
 40
3.0
 41
0.0
 71
     4
 72
     1
  1
T.Tedeschi
  7
CONVERTER_12
 73
     1
 44
1.32052821128451
  0
MTEXT
  5
61C
330
1F
100
AcDbEntity
  8
1
 62
     7
100
AcDbMText
 10
-40.32369931125732
 20
16.26063942075597
 30
0.0
 40
3.0
 41
0.0
 71
     5
 72
     1
  1
Scale
  7
CONVERTER_12
 73
     1
 44
1.32052821128451
  0
MTEXT
  5
61D
330
1F
100
AcDbEntity
  8
1
 62
     7
100
AcDbMText
 10
-40.32369931125732
 20
10.06063942075603
 30
0.0
 40
4.5
 41
0.0
 71
     5
 72
     1
  1
1:1
  7
CONVERTER_12
 73
     1
 44
1.32052821128451
  0
DIMENSION
  5
628
330
1F
100
AcDbEntity
  8
1
100
AcDbDimension
  2
*D1
 10
-29.4848678726677
 20
188.1411685035745
 30
0.0
 11
-33.1348678726677
 21
170.3911685035742
 31
0.0
 70
    32
  1
<>
 71
     5
 42
-1.0
 53
90.0
  3
ME10_DIM_10
100
AcDbAlignedDimension
 13
-42.09999999999994
 23
152.6411685035739
 33
0.0
 14
-46.39999999999949
 24
188.1411685035745
 34
0.0
 50
90.0
100
AcDbRotatedDimension
  0
DIMENSION
  5
633
330
1F
100
AcDbEntity
  8
1
100
AcDbDimension
  2
*D2
 10
-74.09999999999982
 20
128.893710486078
 30
0.0
 11
-59.09999999999982
 21
132.393710486078
 31
0.0
 70
    32
  1
<>
 71
     5
 42
-1.0
 53
0.00013888888889
  3
ME10_DIM_11
100
AcDbAlignedDimension
 13
-44.09999999999982
 23
152.6411685035739
 33
0.0
 14
-74.09999999999982
 24
152.6411685035735
 34
0.0
100
AcDbRotatedDimension
  0
DIMENSION
  5
63E
330
1F
100
AcDbEntity
  8
1
100
AcDbDimension
  2
*D3
 10
-147.1000000000001
 20
128.743710486078
 30
0.0
 11
-125.0500000000001
 21
132.393710486078
 31
0.0
 70
    32
  1
<>
 71
     5
 42
-1.0
 53
0.00013888888889
  3
ME10_DIM_12
100
AcDbAlignedDimension
 13
-103.0000000000001
 23
152.6411685035733
 33
0.0
 14
-147.1000000000001
 24
152.6411685035735
 34
0.0
100
AcDbRotatedDimension
  0
HATCH
  5
63F
330
1F
100
AcDbEntity
  8
1
  6
Continuous
 62
     7
100
AcDbHatch
 10
0.0
 20
0.0
 30
0.0
210
0.0
220
0.0
230
1.0
  2
SOLID
 70
     1
 71
     1
 91
        1
 92
        1
 93
        5
 72
     1
 10
-21.990365977924
 20
14.15326939093666
 11
-21.990365977924
 21
11.0392519172633
 72
     1
 10
-21.990365977924
 20
11.0392519172633
 11
-21.990365977924
 21
10.84673060906323
 72
     2
 10
-22.32369931125732
 20
10.84673060906323
 40
0.333333333333389
 50
0.0
 51
180.0
 73
     0
 72
     1
 10
-22.65703264459071
 20
10.84673060906323
 11
-22.65703264459071
 21
14.15326939093666
 72
     2
 10
-22.32369931125732
 20
14.15326939093666
 40
0.3333333333333215
 50
180.0
 51
360.0
 73
     0
 97
        5
330
74
330
75
330
54F
330
76
330
54E
 75
     0
 76
     1
 98
        1
 10
0.0
 20
0.0
  0
HATCH
  5
640
330
1F
100
AcDbEntity
  8
1
  6
Continuous
 62
     7
100
AcDbHatch
 10
0.0
 20
0.0
 30
0.0
210
0.0
220
0.0
230
1.0
  2
SOLID
 70
     1
 71
     1
 91
        1
 92
        1
 93
       16
 72
     2
 10
-19.72539976544871
 20
15.73121731203457
 40
0.2649662124752792
 50
30.00000000001998
 51
180.0
 73
     1
 72
     1
 10
-19.990365977924
 20
15.73121731203457
 11
-19.990365977924
 21
12.5
 72
     1
 10
-19.990365977924
 20
12.5
 11
-19.990365977924
 21
10.84758507263291
 72
     2
 10
-19.65703264459071
 20
10.84758507263291
 40
0.3333333333332895
 50
180.0
 51
360.0
 73
     1
 72
     1
 10
-19.32369931125732
 20
10.84758507263291
 11
-19.32369931125732
 21
12.5
 72
     1
 10
-19.32369931125732
 20
12.5
 11
-19.32369931125732
 21
14.23205080756884
 72
     1
 10
-19.32369931125732
 20
14.23205080756884
 11
-18.46803687855481
 21
12.75
 72
     2
 10
-18.32369931125732
 20
12.83333333333326
 40
0.1666666666666997
 50
209.999999999964
 51
330.000000000025
 73
     1
 72
     1
 10
-18.1793617439599
 20
12.75
 11
-17.32369931125732
 21
14.23205080756884
 72
     1
 10
-17.32369931125732
 20
14.23205080756884
 11
-17.32369931125732
 21
12.5
 72
     1
 10
-17.32369931125732
 20
12.5
 11
-17.32369931125732
 21
9.308269070601796
 72
     2
 10
-16.99036597792392
 20
9.308269070601796
 40
0.3333333333334032
 50
180.0
 51
360.0
 73
     1
 72
     1
 10
-16.65703264459071
 20
9.308269070601796
 11
-16.65703264459071
 21
15.73121731203457
 72
     2
 10
-16.921998857066
 20
15.73121731203457
 40
0.2649662124752901
 50
0.0
 51
149.9999999999712
 73
     1
 72
     1
 10
-17.15146632821401
 20
15.86370041827229
 11
-18.32369931125732
 21
13.83333333333326
 72
     1
 10
-18.32369931125732
 20
13.83333333333326
 11
-19.49593229430062
 21
15.86370041827229
 97
       16
330
6F
330
54B
330
6E
330
54A
330
6D
330
61
330
62
330
5F4
330
63
330
64
330
6C
330
549
330
6B
330
69
330
548
330
6A
 75
     0
 76
     1
 98
        1
 10
0.0
 20
0.0
  0
HATCH
  5
641
330
1F
100
AcDbEntity
  8
1
  6
Continuous
 62
     7
100
AcDbHatch
 10
0.0
 20
0.0
 30
0.0
210
0.0
220
0.0
230
1.0
  2
SOLID
 70
     1
 71
     1
 91
        1
 92
        1
 93
        7
 72
     1
 10
-20.65703264459071
 20
14.92250016016737
 11
-20.65703264459071
 21
10.2700211480327
 72
     1
 10
-20.65703264459071
 20
10.2700211480327
 11
-18.49045849342741
 21
9.020074522361597
 72
     2
 10
-18.65703264459071
 20
8.731345993678701
 40
0.3333333333333567
 50
299.9816393688628
 51
479.9816393688463
 73
     0
 72
     1
 10
-18.8236067957539
 20
8.442617464995806
 11
-20.99018094691701
 21
9.692564090666906
 72
     2
 10
-20.65703264459071
 20
10.2700211480327
 40
0.666666666666611
 50
119.9816393688404
 51
179.9999999999896
 73
     0
 72
     1
 10
-21.32369931125732
 20
10.27002114803258
 11
-21.32369931125732
 21
14.92250016016737
 72
     2
 10
-20.990365977924
 20
14.92250016016737
 40
0.3333333333332895
 50
180.0
 51
360.0
 73
     0
 97
        7
330
71
330
72
330
54D
330
73
330
5F5
330
70
330
54C
 75
     0
 76
     1
 98
        1
 10
0.0
 20
0.0
  0
HATCH
  5
642
330
1F
100
AcDbEntity
  8
1
  6
Continuous
 62
     7
100
AcDbHatch
 10
0.0
 20
0.0
 30
0.0
210
0.0
220
0.0
230
1.0
  2
SOLID
 70
     1
 71
     1
 91
        1
 92
        1
 93
       14
 72
     1
 10
-15.49045849342741
 20
15.21122868885027
 11
-14.15712516009421
 21
14.44199791961944
 72
     2
 10
-14.32369931125732
 20
14.15326939093666
 40
0.3333333333333569
 50
299.9816393688444
 51
479.9816393688447
 73
     0
 72
     1
 10
-14.4902734624205
 20
13.86454086225376
 11
-15.32369931125732
 21
14.34536346735195
 72
     1
 10
-15.32369931125732
 20
14.34536346735195
 11
-15.32369931125732
 21
12.83333333333326
 72
     1
 10
-15.32369931125732
 20
12.83333333333326
 11
-14.32369931125732
 21
12.83333333333326
 72
     2
 10
-14.32369931125732
 20
12.5
 40
0.3333333333333695
 50
270.0
 51
450.0
 73
     0
 72
     1
 10
-14.32369931125732
 20
12.16666666666663
 11
-15.32369931125732
 21
12.16666666666663
 72
     1
 10
-15.32369931125732
 20
12.16666666666663
 11
-15.32369931125732
 21
10.65463653264794
 72
     1
 10
-15.32369931125732
 20
10.65463653264794
 11
-14.4902734624205
 21
11.13545913774624
 72
     2
 10
-14.32369931125732
 20
10.84673060906323
 40
0.3333333333333198
 50
240.0183606311648
 51
420.0183606311658
 73
     0
 72
     1
 10
-14.15712516009421
 20
10.55800208038033
 11
-15.49045849342741
 21
9.78877131114973
 72
     2
 10
-15.65703264459071
 20
10.07749983983263
 40
0.3333333333332096
 50
60.01836063113722
 51
180.0
 73
     0
 72
     1
 10
-15.99036597792392
 20
10.07749983983263
 11
-15.99036597792392
 21
14.92250016016737
 72
     2
 10
-15.65703264459071
 20
14.92250016016737
 40
0.3333333333334157
 50
180.0
 51
299.9816393688628
 73
     0
 97
       14
330
77
330
550
330
78
330
79
330
7A
330
551
330
7B
330
7C
330
7D
330
552
330
7E
330
5F9
330
7F
330
5F8
 75
     0
 76
     1
 98
        1
 10
0.0
 20
0.0
  0
HATCH
  5
643
330
1F
100
AcDbEntity
  8
1
  6
Continuous
 62
     2
100
AcDbHatch
 10
0.0
 20
0.0
 30
0.0
210
0.0
220
0.0
230
1.0
  2
SOLID
 70
     1
 71
     1
 91
        1
 92
        1
 93
        3
 72
     1
 10
-139.7500000000002
 20
211.5105516132646
 11
-140.5000000000002
 21
213.5105516132646
 72
     1
 10
-140.5000000000002
 20
213.5105516132646
 11
-139.0000000000002
 21
213.5105516132646
 72
     1
 10
-139.0000000000002
 20
213.5105516132646
 11
-139.7500000000002
 21
211.5105516132646
 97
        3
330
85
330
83
330
84
 75
     0
 76
     1
 98
        1
 10
0.0
 20
0.0
  0
HATCH
  5
644
330
1F
100
AcDbEntity
  8
1
  6
Continuous
 62
     2
100
AcDbHatch
 10
0.0
 20
0.0
 30
0.0
210
0.0
220
0.0
230
1.0
  2
SOLID
 70
     1
 71
     1
 91
        1
 92
        1
 93
        3
 72
     1
 10
-125.0500000000002
 20
211.5105516132646
 11
-125.8000000000001
 21
213.5105516132646
 72
     1
 10
-125.8000000000001
 20
213.5105516132646
 11
-124.3000000000001
 21
213.5105516132646
 72
     1
 10
-124.3000000000001
 20
213.5105516132646
 11
-125.0500000000002
 21
211.5105516132646
 97
        3
330
86
330
88
330
87
 75
     0
 76
     1
 98
        1
 10
0.0
 20
0.0
  0
HATCH
  5
645
330
1F
100
AcDbEntity
  8
1
  6
Continuous
 62
     2
100
AcDbHatch
 10
0.0
 20
0.0
 30
0.0
210
0.0
220
0.0
230
1.0
  2
SOLID
 70
     1
 71
     1
 91
        1
 92
        1
 93
        3
 72
     1
 10
-110.35
 20
211.5105516132646
 11
-111.1
 21
213.5105516132646
 72
     1
 10
-111.1
 20
213.5105516132646
 11
-109.6
 21
213.5105516132646
 72
     1
 10
-109.6
 20
213.5105516132646
 11
-110.35
 21
211.5105516132646
 97
        3
330
8B
330
89
330
8A
 75
     0
 76
     1
 98
        1
 10
0.0
 20
0.0
  0
ENDSEC
  0
SECTION
  2
OBJECTS
  0
DICTIONARY
  5
C
330
0
100
AcDbDictionary
281
     1
  3
ACAD_GROUP
350
D
  3
ACAD_LAYOUT
350
1A
  3
ACAD_MATERIAL
350
3B
  3
ACAD_MLEADERSTYLE
350
648
  3
ACAD_MLINESTYLE
350
17
  3
ACAD_PLOTSETTINGS
350
19
  3
ACAD_PLOTSTYLENAME
350
E
  3
ACAD_VISUALSTYLE
350
2A
  3
AcDbVariableDictionary
350
646
  0
DICTIONARY
  5
D
102
{ACAD_REACTORS
330
C
102
}
330
C
100
AcDbDictionary
281
     1
  0
DICTIONARY
  5
1A
102
{ACAD_REACTORS
330
C
102
}
330
C
100
AcDbDictionary
281
     1
  3
Layout1
350
1E
  3
Layout2
350
26
  3
Model
350
22
  0
DICTIONARY
  5
3B
102
{ACAD_REACTORS
330
C
102
}
330
C
100
AcDbDictionary
281
     1
  3
ByBlock
350
3D
  3
ByLayer
350
3C
  3
Global
350
3E
  0
DICTIONARY
  5
648
102
{ACAD_REACTORS
330
C
102
}
330
C
100
AcDbDictionary
281
     1
  0
DICTIONARY
  5
17
102
{ACAD_REACTORS
330
C
102
}
330
C
100
AcDbDictionary
281
     1
  3
Standard
350
18
  0
DICTIONARY
  5
19
102
{ACAD_REACTORS
330
C
102
}
330
C
100
AcDbDictionary
281
     1
  0
ACDBDICTIONARYWDFLT
  5
E
102
{ACAD_REACTORS
330
C
102
}
330
C
100
AcDbDictionary
281
     1
  3
Normal
350
F
100
AcDbDictionaryWithDefault
340
F
  0
DICTIONARY
  5
2A
102
{ACAD_REACTORS
330
C
102
}
330
C
100
AcDbDictionary
281
     1
  3
2dWireframe
350
2F
  3
3D Hidden
350
31
  3
3dWireframe
350
30
  3
Basic
350
32
  3
Brighten
350
36
  3
ColorChange
350
3A
  3
Conceptual
350
34
  3
Dim
350
35
  3
Facepattern
350
39
  3
Flat
350
2B
  3
FlatWithEdges
350
2C
  3
Gouraud
350
2D
  3
GouraudWithEdges
350
2E
  3
Linepattern
350
38
  3
Realistic
350
33
  3
Thicken
350
37
  0
DICTIONARY
  5
646
102
{ACAD_REACTORS
330
C
102
}
330
C
100
AcDbDictionary
281
     1
  3
DIMASSOC
350
649
  3
HIDETEXT
350
64A
  0
LAYOUT
  5
1E
102
{ACAD_REACTORS
330
1A
102
}
330
1A
100
AcDbPlotSettings
  1

  2
none_device
  4

  6

 40
0.0
 41
0.0
 42
0.0
 43
0.0
 44
0.0
 45
0.0
 46
0.0
 47
0.0
 48
0.0
 49
0.0
140
0.0
141
0.0
142
1.0
143
1.0
 70
   688
 72
     0
 73
     0
 74
     5
  7

 75
    16
147
1.0
148
0.0
149
0.0
100
AcDbLayout
  1
Layout1
 70
     1
 71
     1
 10
0.0
 20
0.0
 11
12.0
 21
9.0
 12
0.0
 22
0.0
 32
0.0
 14
1.00000000000000E+20
 24
1.00000000000000E+20
 34
1.00000000000000E+20
 15
-1.00000000000000E+20
 25
-1.00000000000000E+20
 35
-1.00000000000000E+20
146
0.0
 13
0.0
 23
0.0
 33
0.0
 16
1.0
 26
0.0
 36
0.0
 17
0.0
 27
1.0
 37
0.0
 76
     0
330
1B
  0
LAYOUT
  5
26
102
{ACAD_REACTORS
330
1A
102
}
330
1A
100
AcDbPlotSettings
  1

  2
none_device
  4

  6

 40
0.0
 41
0.0
 42
0.0
 43
0.0
 44
0.0
 45
0.0
 46
0.0
 47
0.0
 48
0.0
 49
0.0
140
0.0
141
0.0
142
1.0
143
1.0
 70
   688
 72
     0
 73
     0
 74
     5
  7

 75
    16
147
1.0
148
0.0
149
0.0
100
AcDbLayout
  1
Layout2
 70
     1
 71
     2
 10
0.0
 20
0.0
 11
0.0
 21
0.0
 12
0.0
 22
0.0
 32
0.0
 14
0.0
 24
0.0
 34
0.0
 15
0.0
 25
0.0
 35
0.0
146
0.0
 13
0.0
 23
0.0
 33
0.0
 16
1.0
 26
0.0
 36
0.0
 17
0.0
 27
1.0
 37
0.0
 76
     0
330
23
  0
LAYOUT
  5
22
102
{ACAD_REACTORS
330
1A
102
}
330
1A
100
AcDbPlotSettings
  1

  2
none_device
  4

  6

 40
0.0
 41
0.0
 42
0.0
 43
0.0
 44
0.0
 45
0.0
 46
0.0
 47
0.0
 48
0.0
 49
0.0
140
0.0
141
0.0
142
1.0
143
1.0
 70
  1712
 72
     0
 73
     0
 74
     0
  7

 75
     0
147
1.0
148
0.0
149
0.0
100
AcDbLayout
  1
Model
 70
     1
 71
     0
 10
0.0
 20
0.0
 11
12.0
 21
9.0
 12
0.0
 22
0.0
 32
0.0
 14
-210.0000000000001
 24
0.0
 34
0.0
 15
0.0
 25
297.0000000000001
 35
0.0
146
0.0
 13
0.0
 23
0.0
 33
0.0
 16
1.0
 26
0.0
 36
0.0
 17
0.0
 27
1.0
 37
0.0
 76
     0
330
1F
331
29
  0
MATERIAL
  5
3D
102
{ACAD_REACTORS
330
3B
102
}
102
{ACAD_XDICTIONARY
360
66D
102
}
330
3B
100
AcDbMaterial
  1
ByBlock
  0
MATERIAL
  5
3C
102
{ACAD_REACTORS
330
3B
102
}
102
{ACAD_XDICTIONARY
360
66B
102
}
330
3B
100
AcDbMaterial
  1
ByLayer
  0
MATERIAL
  5
3E
102
{ACAD_REACTORS
330
3B
102
}
102
{ACAD_XDICTIONARY
360
66F
102
}
330
3B
100
AcDbMaterial
  1
Global
  0
MLINESTYLE
  5
18
102
{ACAD_REACTORS
330
17
102
}
330
17
100
AcDbMlineStyle
  2
Standard
 70
     0
  3

 62
   256
 51
90.0
 52
90.0
 71
     2
 49
0.5
 62
   256
  6
BYLAYER
 49
-0.5
 62
   256
  6
BYLAYER
  0
ACDBPLACEHOLDER
  5
F
102
{ACAD_REACTORS
330
E
102
}
330
E
  0
VISUALSTYLE
  5
2F
102
{ACAD_REACTORS
330
2A
102
}
102
{ACAD_XDICTIONARY
360
653
102
}
330
2A
100
AcDbVisualStyle
  2
2dWireframe
 70
     4
 71
     0
 72
     2
 73
     0
 90
        0
 40
-0.6
 41
-30.0
 62
     5
 63
     7
 74
     1
 91
        4
 64
     7
 65
   257
 75
     1
175
     1
 42
1.0
 92
        0
 66
   257
 43
1.0
 76
     1
 77
     6
 78
     2
 67
     7
 79
     5
170
     0
171
     0
290
     0
174
     0
 93
        1
 44
0.0
173
     0
291
     0
 45
0.0
1001
ACAD
1000
AcDbSavedByObjectVersion
1070
     0
  0
VISUALSTYLE
  5
31
102
{ACAD_REACTORS
330
2A
102
}
102
{ACAD_XDICTIONARY
360
657
102
}
330
2A
100
AcDbVisualStyle
  2
3D Hidden
 70
     6
 71
     1
 72
     2
 73
     2
 90
        0
 40
-0.6
 41
-30.0
 62
     5
 63
     7
 74
     2
 91
        2
 64
     7
 65
   257
 75
     2
175
     1
 42
40.0
 92
        0
 66
   257
 43
1.0
 76
     1
 77
     6
 78
     2
 67
     7
 79
     3
170
     0
171
     0
290
     0
174
     0
 93
        1
 44
0.0
173
     0
291
     0
 45
0.0
1001
ACAD
1000
AcDbSavedByObjectVersion
1070
     0
  0
VISUALSTYLE
  5
30
102
{ACAD_REACTORS
330
2A
102
}
102
{ACAD_XDICTIONARY
360
655
102
}
330
2A
100
AcDbVisualStyle
  2
3dWireframe
 70
     5
 71
     0
 72
     2
 73
     0
 90
        0
 40
-0.6
 41
-30.0
 62
     5
 63
     7
 74
     1
 91
        4
 64
     7
 65
   257
 75
     1
175
     1
 42
1.0
 92
        0
 66
   257
 43
1.0
 76
     1
 77
     6
 78
     2
 67
     7
 79
     5
170
     0
171
     0
290
     0
174
     0
 93
        1
 44
0.0
173
     0
291
     0
 45
0.0
1001
ACAD
1000
AcDbSavedByObjectVersion
1070
     0
  0
VISUALSTYLE
  5
32
102
{ACAD_REACTORS
330
2A
102
}
102
{ACAD_XDICTIONARY
360
659
102
}
330
2A
100
AcDbVisualStyle
  2
Basic
 70
     7
 71
     1
 72
     0
 73
     1
 90
        0
 40
-0.6
 41
-30.0
 62
     5
 63
     7
 74
     0
 91
        4
 64
     7
 65
   257
 75
     1
175
     1
 42
1.0
 92
        8
 66
     7
 43
1.0
 76
     1
 77
     6
 78
     2
 67
     7
 79
     5
170
     0
171
     0
290
     0
174
     0
 93
        1
 44
0.0
173
     0
291
     1
 45
0.0
1001
ACAD
1000
AcDbSavedByObjectVersion
1070
     0
  0
VISUALSTYLE
  5
36
102
{ACAD_REACTORS
330
2A
102
}
102
{ACAD_XDICTIONARY
360
661
102
}
330
2A
100
AcDbVisualStyle
  2
Brighten
 70
    12
 71
     2
 72
     2
 73
     0
 90
        0
 40
-0.6
 41
-30.0
 62
     5
 63
     7
 74
     1
 91
        4
 64
     7
 65
   257
 75
     1
175
     1
 42
1.0
 92
        8
 66
     7
 43
1.0
 76
     1
 77
     6
 78
     2
 67
     7
 79
     5
170
     0
171
     0
290
     0
174
     0
 93
        1
 44
50.0
173
     0
291
     1
 45
0.0
1001
ACAD
1000
AcDbSavedByObjectVersion
1070
     0
  0
VISUALSTYLE
  5
3A
102
{ACAD_REACTORS
330
2A
102
}
102
{ACAD_XDICTIONARY
360
669
102
}
330
2A
100
AcDbVisualStyle
  2
ColorChange
 70
    16
 71
     2
 72
     2
 73
     3
 90
        0
 40
-0.6
 41
-30.0
 62
     5
 63
     8
 74
     1
 91
        4
 64
     7
 65
   257
 75
     1
175
     1
 42
1.0
 92
        8
 66
     8
 43
1.0
 76
     1
 77
     6
 78
     2
 67
     7
 79
     5
170
     0
171
     0
290
     0
174
     0
 93
        1
 44
0.0
173
     0
291
     1
 45
0.0
1001
ACAD
1000
AcDbSavedByObjectVersion
1070
     0
  0
VISUALSTYLE
  5
34
102
{ACAD_REACTORS
330
2A
102
}
102
{ACAD_XDICTIONARY
360
65D
102
}
330
2A
100
AcDbVisualStyle
  2
Conceptual
 70
     9
 71
     3
 72
     2
 73
     0
 90
        0
 40
-0.6
 41
-30.0
 62
     5
 63
     7
 74
     2
 91
        2
 64
     7
 65
   257
 75
     1
175
     1
 42
40.0
 92
        8
 66
     7
 43
1.0
 76
     1
 77
     6
 78
     2
 67
     7
 79
     3
170
     0
171
     0
290
     0
174
     0
 93
        1
 44
0.0
173
     0
291
     0
 45
0.0
1001
ACAD
1000
AcDbSavedByObjectVersion
1070
     0
  0
VISUALSTYLE
  5
35
102
{ACAD_REACTORS
330
2A
102
}
102
{ACAD_XDICTIONARY
360
65F
102
}
330
2A
100
AcDbVisualStyle
  2
Dim
 70
    11
 71
     2
 72
     2
 73
     0
 90
        0
 40
-0.6
 41
-30.0
 62
     5
 63
     7
 74
     1
 91
        4
 64
     7
 65
   257
 75
     1
175
     1
 42
1.0
 92
        8
 66
     7
 43
1.0
 76
     1
 77
     6
 78
     2
 67
     7
 79
     5
170
     0
171
     0
290
     0
174
     0
 93
        1
 44
-50.0
173
     0
291
     1
 45
0.0
1001
ACAD
1000
AcDbSavedByObjectVersion
1070
     0
  0
VISUALSTYLE
  5
39
102
{ACAD_REACTORS
330
2A
102
}
102
{ACAD_XDICTIONARY
360
667
102
}
330
2A
100
AcDbVisualStyle
  2
Facepattern
 70
    15
 71
     2
 72
     2
 73
     0
 90
        0
 40
-0.6
 41
-30.0
 62
     5
 63
     7
 74
     1
 91
        4
 64
     7
 65
   257
 75
     1
175
     1
 42
1.0
 92
        8
 66
     7
 43
1.0
 76
     1
 77
     6
 78
     2
 67
     7
 79
     5
170
     0
171
     0
290
     0
174
     0
 93
        1
 44
0.0
173
     0
291
     1
 45
0.0
1001
ACAD
1000
AcDbSavedByObjectVersion
1070
     0
  0
VISUALSTYLE
  5
2B
102
{ACAD_REACTORS
330
2A
102
}
102
{ACAD_XDICTIONARY
360
64B
102
}
330
2A
100
AcDbVisualStyle
  2
Flat
 70
     0
 71
     2
 72
     1
 73
     1
 90
        2
 40
-0.6
 41
30.0
 62
     5
 63
     7
 74
     0
 91
        4
 64
     7
 65
   257
 75
     1
175
     1
 42
1.0
 92
        8
 66
     7
 43
1.0
 76
     1
 77
     6
 78
     2
 67
     7
 79
     5
170
     0
171
     0
290
     0
174
     0
 93
       13
 44
0.0
173
     0
291
     1
 45
0.0
1001
ACAD
1000
AcDbSavedByObjectVersion
1070
     0
  0
VISUALSTYLE
  5
2C
102
{ACAD_REACTORS
330
2A
102
}
102
{ACAD_XDICTIONARY
360
64D
102
}
330
2A
100
AcDbVisualStyle
  2
FlatWithEdges
 70
     1
 71
     2
 72
     1
 73
     1
 90
        2
 40
-0.6
 41
30.0
 62
     5
 63
     7
 74
     1
 91
        4
 64
     7
 65
   257
 75
     1
175
     1
 42
1.0
 92
        0
 66
   257
 43
1.0
 76
     1
 77
     6
 78
     2
 67
     7
 79
     5
170
     0
171
     0
290
     0
174
     0
 93
       13
 44
0.0
173
     0
291
     1
 45
0.0
1001
ACAD
1000
AcDbSavedByObjectVersion
1070
     0
  0
VISUALSTYLE
  5
2D
102
{ACAD_REACTORS
330
2A
102
}
102
{ACAD_XDICTIONARY
360
64F
102
}
330
2A
100
AcDbVisualStyle
  2
Gouraud
 70
     2
 71
     2
 72
     2
 73
     1
 90
        2
 40
-0.6
 41
30.0
 62
     5
 63
     7
 74
     0
 91
        4
 64
     7
 65
   257
 75
     1
175
     1
 42
1.0
 92
        0
 66
     7
 43
1.0
 76
     1
 77
     6
 78
     2
 67
     7
 79
     5
170
     0
171
     0
290
     0
174
     0
 93
       13
 44
0.0
173
     0
291
     1
 45
0.0
1001
ACAD
1000
AcDbSavedByObjectVersion
1070
     0
  0
VISUALSTYLE
  5
2E
102
{ACAD_REACTORS
330
2A
102
}
102
{ACAD_XDICTIONARY
360
651
102
}
330
2A
100
AcDbVisualStyle
  2
GouraudWithEdges
 70
     3
 71
     2
 72
     2
 73
     1
 90
        2
 40
-0.6
 41
30.0
 62
     5
 63
     7
 74
     1
 91
        4
 64
     7
 65
   257
 75
     1
175
     1
 42
1.0
 92
        0
 66
   257
 43
1.0
 76
     1
 77
     6
 78
     2
 67
     7
 79
     5
170
     0
171
     0
290
     0
174
     0
 93
       13
 44
0.0
173
     0
291
     1
 45
0.0
1001
ACAD
1000
AcDbSavedByObjectVersion
1070
     0
  0
VISUALSTYLE
  5
38
102
{ACAD_REACTORS
330
2A
102
}
102
{ACAD_XDICTIONARY
360
665
102
}
330
2A
100
AcDbVisualStyle
  2
Linepattern
 70
    14
 71
     2
 72
     2
 73
     0
 90
        0
 40
-0.6
 41
-30.0
 62
     5
 63
     7
 74
     1
 91
        4
 64
     7
 65
   257
 75
     7
175
     7
 42
1.0
 92
        8
 66
     7
 43
1.0
 76
     1
 77
     6
 78
     2
 67
     7
 79
     5
170
     0
171
     0
290
     0
174
     0
 93
        1
 44
0.0
173
     0
291
     1
 45
0.0
1001
ACAD
1000
AcDbSavedByObjectVersion
1070
     0
  0
VISUALSTYLE
  5
33
102
{ACAD_REACTORS
330
2A
102
}
102
{ACAD_XDICTIONARY
360
65B
102
}
330
2A
100
AcDbVisualStyle
  2
Realistic
 70
     8
 71
     2
 72
     2
 73
     0
 90
        0
 40
-0.6
 41
-30.0
 62
     5
 63
     7
 74
     1
 91
        0
 64
     7
 65
   257
 75
     1
175
     1
 42
1.0
 92
        8
 66
     8
 43
1.0
 76
     1
 77
     6
 78
     2
 67
     7
 79
     5
170
     0
171
     0
290
     0
174
     0
 93
       13
 44
0.0
173
     0
291
     0
 45
0.0
1001
ACAD
1000
AcDbSavedByObjectVersion
1070
     0
  0
VISUALSTYLE
  5
37
102
{ACAD_REACTORS
330
2A
102
}
102
{ACAD_XDICTIONARY
360
663
102
}
330
2A
100
AcDbVisualStyle
  2
Thicken
 70
    13
 71
     2
 72
     2
 73
     0
 90
        0
 40
-0.6
 41
-30.0
 62
     5
 63
     7
 74
     1
 91
        4
 64
     7
 65
   257
 75
     1
175
     1
 42
1.0
 92
       12
 66
     7
 43
1.0
 76
     1
 77
     6
 78
     2
 67
     7
 79
     5
170
     0
171
     0
290
     0
174
     0
 93
        1
 44
0.0
173
     0
291
     1
 45
0.0
1001
ACAD
1000
AcDbSavedByObjectVersion
1070
     0
  0
DICTIONARYVAR
  5
649
102
{ACAD_REACTORS
330
646
102
}
330
646
100
DictionaryVariables
280
     0
  1
2
  0
DICTIONARYVAR
  5
64A
102
{ACAD_REACTORS
330
646
102
}
330
646
100
DictionaryVariables
280
     0
  1
1
  0
DICTIONARY
  5
66D
330
3D
100
AcDbDictionary
280
     1
281
     1
  3
ACAD_XREC_ROUNDTRIP
360
66E
  0
DICTIONARY
  5
66B
330
3C
100
AcDbDictionary
280
     1
281
     1
  3
ACAD_XREC_ROUNDTRIP
360
66C
  0
DICTIONARY
  5
66F
330
3E
100
AcDbDictionary
280
     1
281
     1
  3
ACAD_XREC_ROUNDTRIP
360
670
  0
DICTIONARY
  5
653
330
2F
100
AcDbDictionary
280
     1
281
     1
  3
ACAD_XREC_ROUNDTRIP
360
654
  0
DICTIONARY
  5
657
330
31
100
AcDbDictionary
280
     1
281
     1
  3
ACAD_XREC_ROUNDTRIP
360
658
  0
DICTIONARY
  5
655
330
30
100
AcDbDictionary
280
     1
281
     1
  3
ACAD_XREC_ROUNDTRIP
360
656
  0
DICTIONARY
  5
659
330
32
100
AcDbDictionary
280
     1
281
     1
  3
ACAD_XREC_ROUNDTRIP
360
65A
  0
DICTIONARY
  5
661
330
36
100
AcDbDictionary
280
     1
281
     1
  3
ACAD_XREC_ROUNDTRIP
360
662
  0
DICTIONARY
  5
669
330
3A
100
AcDbDictionary
280
     1
281
     1
  3
ACAD_XREC_ROUNDTRIP
360
66A
  0
DICTIONARY
  5
65D
330
34
100
AcDbDictionary
280
     1
281
     1
  3
ACAD_XREC_ROUNDTRIP
360
65E
  0
DICTIONARY
  5
65F
330
35
100
AcDbDictionary
280
     1
281
     1
  3
ACAD_XREC_ROUNDTRIP
360
660
  0
DICTIONARY
  5
667
330
39
100
AcDbDictionary
280
     1
281
     1
  3
ACAD_XREC_ROUNDTRIP
360
668
  0
DICTIONARY
  5
64B
330
2B
100
AcDbDictionary
280
     1
281
     1
  3
ACAD_XREC_ROUNDTRIP
360
64C
  0
DICTIONARY
  5
64D
330
2C
100
AcDbDictionary
280
     1
281
     1
  3
ACAD_XREC_ROUNDTRIP
360
64E
  0
DICTIONARY
  5
64F
330
2D
100
AcDbDictionary
280
     1
281
     1
  3
ACAD_XREC_ROUNDTRIP
360
650
  0
DICTIONARY
  5
651
330
2E
100
AcDbDictionary
280
     1
281
     1
  3
ACAD_XREC_ROUNDTRIP
360
652
  0
DICTIONARY
  5
665
330
38
100
AcDbDictionary
280
     1
281
     1
  3
ACAD_XREC_ROUNDTRIP
360
666
  0
DICTIONARY
  5
65B
330
33
100
AcDbDictionary
280
     1
281
     1
  3
ACAD_XREC_ROUNDTRIP
360
65C
  0
DICTIONARY
  5
663
330
37
100
AcDbDictionary
280
     1
281
     1
  3
ACAD_XREC_ROUNDTRIP
360
664
  0
XRECORD
  5
66E
102
{ACAD_REACTORS
330
66D
102
}
330
66D
100
AcDbXrecord
280
     1
102
MATERIAL
148
0.0
149
0.0
149
0.0
 93
        0
 94
      127
282
     0
 72
     1
 77
     1
171
     1
175
     1
179
     1
273
     0
  0
XRECORD
  5
66C
102
{ACAD_REACTORS
330
66B
102
}
330
66B
100
AcDbXrecord
280
     1
102
MATERIAL
148
0.0
149
0.0
149
0.0
 93
        0
 94
      127
282
     0
 72
     1
 77
     1
171
     1
175
     1
179
     1
273
     0
  0
XRECORD
  5
670
102
{ACAD_REACTORS
330
66F
102
}
330
66F
100
AcDbXrecord
280
     1
102
MATERIAL
148
0.0
149
0.0
149
0.0
 93
        0
 94
      127
282
     0
 72
     1
 77
     1
171
     1
175
     1
179
     1
273
     0
  0
XRECORD
  5
654
102
{ACAD_REACTORS
330
653
102
}
330
653
100
AcDbXrecord
280
     1
102
RTVSPropertyOp0
 70
     1
102
RTVSPropertyOp1
 70
     1
102
RTVSPropertyOp2
 70
     1
102
RTVSPropertyOp3
 70
     1
102
RTVSPropertyOp4
 70
     1
102
RTVSPropertyOp5
 70
     1
102
RTVSPropertyOp6
 70
     1
102
RTVSPropertyOp7
 70
     1
102
RTVSPropertyOp8
 70
     1
102
RTVSPropertyOp9
 70
     1
102
RTVSPropertyOp10
 70
     1
102
RTVSPropertyOp11
 70
     1
102
RTVSPropertyOp12
 70
     1
102
RTVSPropertyOp13
 70
     1
102
RTVSPropertyOp14
 70
     1
102
RTVSPropertyOp15
 70
     1
102
RTVSPropertyOp16
 70
     1
102
RTVSPropertyOp17
 70
     1
102
RTVSPropertyOp18
 70
     1
102
RTVSPropertyOp19
 70
     1
102
RTVSPropertyOp20
 70
     1
102
RTVSPropertyOp21
 70
     1
102
RTVSPropertyOp22
 70
     1
102
RTVSPropertyOp23
 70
     1
102
RTVSPropertyOp24
 70
     1
102
RTVSPropertyOp25
 70
     1
102
RTVSPropertyOp26
 70
     1
102
RTVSPropertyOp27
 70
     1
102
RTVSPropertyOp28
 70
     1
102
RTVSPropertyOp29
 70
     1
102
RTVSPropertyOp30
 70
     1
102
RTVSPropertyOp31
 70
     1
102
RTVSPropertyOp32
 70
     1
  0
XRECORD
  5
658
102
{ACAD_REACTORS
330
657
102
}
330
657
100
AcDbXrecord
280
     1
102
RTVSPropertyOp0
 70
     1
102
RTVSPropertyOp1
 70
     1
102
RTVSPropertyOp2
 70
     1
102
RTVSPropertyOp3
 70
     1
102
RTVSPropertyOp4
 70
     1
102
RTVSPropertyOp5
 70
     1
102
RTVSPropertyOp6
 70
     1
102
RTVSPropertyOp7
 70
     1
102
RTVSPropertyOp8
 70
     1
102
RTVSPropertyOp9
 70
     1
102
RTVSPropertyOp10
 70
     1
102
RTVSPropertyOp11
 70
     1
102
RTVSPropertyOp12
 70
     1
102
RTVSPropertyOp13
 70
     1
102
RTVSPropertyOp14
 70
     1
102
RTVSPropertyOp15
 70
     1
102
RTVSPropertyOp16
 70
     1
102
RTVSPropertyOp17
 70
     1
102
RTVSPropertyOp18
 70
     1
102
RTVSPropertyOp19
 70
     1
102
RTVSPropertyOp20
 70
     1
102
RTVSPropertyOp21
 70
     1
102
RTVSPropertyOp22
 70
     1
102
RTVSPropertyOp23
 70
     1
102
RTVSPropertyOp24
 70
     1
102
RTVSPropertyOp25
 70
     1
102
RTVSPropertyOp26
 70
     1
102
RTVSPropertyOp27
 70
     1
102
RTVSPropertyOp28
 70
     1
102
RTVSPropertyOp29
 70
     1
102
RTVSPropertyOp30
 70
     1
102
RTVSPropertyOp31
 70
     1
102
RTVSPropertyOp32
 70
     1
  0
XRECORD
  5
656
102
{ACAD_REACTORS
330
655
102
}
330
655
100
AcDbXrecord
280
     1
102
RTVSPropertyOp0
 70
     1
102
RTVSPropertyOp1
 70
     1
102
RTVSPropertyOp2
 70
     1
102
RTVSPropertyOp3
 70
     1
102
RTVSPropertyOp4
 70
     1
102
RTVSPropertyOp5
 70
     1
102
RTVSPropertyOp6
 70
     1
102
RTVSPropertyOp7
 70
     1
102
RTVSPropertyOp8
 70
     1
102
RTVSPropertyOp9
 70
     1
102
RTVSPropertyOp10
 70
     1
102
RTVSPropertyOp11
 70
     1
102
RTVSPropertyOp12
 70
     1
102
RTVSPropertyOp13
 70
     1
102
RTVSPropertyOp14
 70
     1
102
RTVSPropertyOp15
 70
     1
102
RTVSPropertyOp16
 70
     1
102
RTVSPropertyOp17
 70
     1
102
RTVSPropertyOp18
 70
     1
102
RTVSPropertyOp19
 70
     1
102
RTVSPropertyOp20
 70
     1
102
RTVSPropertyOp21
 70
     1
102
RTVSPropertyOp22
 70
     1
102
RTVSPropertyOp23
 70
     1
102
RTVSPropertyOp24
 70
     1
102
RTVSPropertyOp25
 70
     1
102
RTVSPropertyOp26
 70
     1
102
RTVSPropertyOp27
 70
     1
102
RTVSPropertyOp28
 70
     1
102
RTVSPropertyOp29
 70
     1
102
RTVSPropertyOp30
 70
     1
102
RTVSPropertyOp31
 70
     1
102
RTVSPropertyOp32
 70
     1
  0
XRECORD
  5
65A
102
{ACAD_REACTORS
330
659
102
}
330
659
100
AcDbXrecord
280
     1
102
RTVSPropertyOp0
 70
     1
102
RTVSPropertyOp1
 70
     1
102
RTVSPropertyOp2
 70
     1
102
RTVSPropertyOp3
 70
     1
102
RTVSPropertyOp4
 70
     1
102
RTVSPropertyOp5
 70
     1
102
RTVSPropertyOp6
 70
     1
102
RTVSPropertyOp7
 70
     1
102
RTVSPropertyOp8
 70
     1
102
RTVSPropertyOp9
 70
     1
102
RTVSPropertyOp10
 70
     1
102
RTVSPropertyOp11
 70
     1
102
RTVSPropertyOp12
 70
     1
102
RTVSPropertyOp13
 70
     1
102
RTVSPropertyOp14
 70
     1
102
RTVSPropertyOp15
 70
     1
102
RTVSPropertyOp16
 70
     1
102
RTVSPropertyOp17
 70
     1
102
RTVSPropertyOp18
 70
     1
102
RTVSPropertyOp19
 70
     1
102
RTVSPropertyOp20
 70
     1
102
RTVSPropertyOp21
 70
     1
102
RTVSPropertyOp22
 70
     1
102
RTVSPropertyOp23
 70
     1
102
RTVSPropertyOp24
 70
     1
102
RTVSPropertyOp25
 70
     1
102
RTVSPropertyOp26
 70
     1
102
RTVSPropertyOp27
 70
     1
102
RTVSPropertyOp28
 70
     1
102
RTVSPropertyOp29
 70
     1
102
RTVSPropertyOp30
 70
     1
102
RTVSPropertyOp31
 70
     1
102
RTVSPropertyOp32
 70
     1
  0
XRECORD
  5
662
102
{ACAD_REACTORS
330
661
102
}
330
661
100
AcDbXrecord
280
     1
102
RTVSPropertyOp0
 70
     1
102
RTVSPropertyOp1
 70
     1
102
RTVSPropertyOp2
 70
     1
102
RTVSPropertyOp3
 70
     1
102
RTVSPropertyOp4
 70
     1
102
RTVSPropertyOp5
 70
     1
102
RTVSPropertyOp6
 70
     1
102
RTVSPropertyOp7
 70
     1
102
RTVSPropertyOp8
 70
     1
102
RTVSPropertyOp9
 70
     1
102
RTVSPropertyOp10
 70
     1
102
RTVSPropertyOp11
 70
     1
102
RTVSPropertyOp12
 70
     1
102
RTVSPropertyOp13
 70
     1
102
RTVSPropertyOp14
 70
     1
102
RTVSPropertyOp15
 70
     1
102
RTVSPropertyOp16
 70
     1
102
RTVSPropertyOp17
 70
     1
102
RTVSPropertyOp18
 70
     1
102
RTVSPropertyOp19
 70
     1
102
RTVSPropertyOp20
 70
     1
102
RTVSPropertyOp21
 70
     1
102
RTVSPropertyOp22
 70
     1
102
RTVSPropertyOp23
 70
     1
102
RTVSPropertyOp24
 70
     1
102
RTVSPropertyOp25
 70
     1
102
RTVSPropertyOp26
 70
     1
102
RTVSPropertyOp27
 70
     1
102
RTVSPropertyOp28
 70
     1
102
RTVSPropertyOp29
 70
     1
102
RTVSPropertyOp30
 70
     1
102
RTVSPropertyOp31
 70
     1
102
RTVSPropertyOp32
 70
     1
  0
XRECORD
  5
66A
102
{ACAD_REACTORS
330
669
102
}
330
669
100
AcDbXrecord
280
     1
102
RTVSPropertyOp0
 70
     1
102
RTVSPropertyOp1
 70
     1
102
RTVSPropertyOp2
 70
     1
102
RTVSPropertyOp3
 70
     1
102
RTVSPropertyOp4
 70
     1
102
RTVSPropertyOp5
 70
     1
102
RTVSPropertyOp6
 70
     1
102
RTVSPropertyOp7
 70
     1
102
RTVSPropertyOp8
 70
     1
102
RTVSPropertyOp9
 70
     1
102
RTVSPropertyOp10
 70
     1
102
RTVSPropertyOp11
 70
     1
102
RTVSPropertyOp12
 70
     1
102
RTVSPropertyOp13
 70
     1
102
RTVSPropertyOp14
 70
     1
102
RTVSPropertyOp15
 70
     1
102
RTVSPropertyOp16
 70
     1
102
RTVSPropertyOp17
 70
     1
102
RTVSPropertyOp18
 70
     1
102
RTVSPropertyOp19
 70
     1
102
RTVSPropertyOp20
 70
     1
102
RTVSPropertyOp21
 70
     1
102
RTVSPropertyOp22
 70
     1
102
RTVSPropertyOp23
 70
     1
102
RTVSPropertyOp24
 70
     1
102
RTVSPropertyOp25
 70
     1
102
RTVSPropertyOp26
 70
     1
102
RTVSPropertyOp27
 70
     1
102
RTVSPropertyOp28
 70
     1
102
RTVSPropertyOp29
 70
     1
102
RTVSPropertyOp30
 70
     1
102
RTVSPropertyOp31
 70
     1
102
RTVSPropertyOp32
 70
     1
  0
XRECORD
  5
65E
102
{ACAD_REACTORS
330
65D
102
}
330
65D
100
AcDbXrecord
280
     1
102
RTVSPropertyOp0
 70
     1
102
RTVSPropertyOp1
 70
     1
102
RTVSPropertyOp2
 70
     1
102
RTVSPropertyOp3
 70
     1
102
RTVSPropertyOp4
 70
     1
102
RTVSPropertyOp5
 70
     1
102
RTVSPropertyOp6
 70
     1
102
RTVSPropertyOp7
 70
     1
102
RTVSPropertyOp8
 70
     1
102
RTVSPropertyOp9
 70
     1
102
RTVSPropertyOp10
 70
     1
102
RTVSPropertyOp11
 70
     1
102
RTVSPropertyOp12
 70
     1
102
RTVSPropertyOp13
 70
     1
102
RTVSPropertyOp14
 70
     1
102
RTVSPropertyOp15
 70
     1
102
RTVSPropertyOp16
 70
     1
102
RTVSPropertyOp17
 70
     1
102
RTVSPropertyOp18
 70
     1
102
RTVSPropertyOp19
 70
     1
102
RTVSPropertyOp20
 70
     1
102
RTVSPropertyOp21
 70
     1
102
RTVSPropertyOp22
 70
     1
102
RTVSPropertyOp23
 70
     1
102
RTVSPropertyOp24
 70
     1
102
RTVSPropertyOp25
 70
     1
102
RTVSPropertyOp26
 70
     1
102
RTVSPropertyOp27
 70
     1
102
RTVSPropertyOp28
 70
     1
102
RTVSPropertyOp29
 70
     1
102
RTVSPropertyOp30
 70
     1
102
RTVSPropertyOp31
 70
     1
102
RTVSPropertyOp32
 70
     1
  0
XRECORD
  5
660
102
{ACAD_REACTORS
330
65F
102
}
330
65F
100
AcDbXrecord
280
     1
102
RTVSPropertyOp0
 70
     1
102
RTVSPropertyOp1
 70
     1
102
RTVSPropertyOp2
 70
     1
102
RTVSPropertyOp3
 70
     1
102
RTVSPropertyOp4
 70
     1
102
RTVSPropertyOp5
 70
     1
102
RTVSPropertyOp6
 70
     1
102
RTVSPropertyOp7
 70
     1
102
RTVSPropertyOp8
 70
     1
102
RTVSPropertyOp9
 70
     1
102
RTVSPropertyOp10
 70
     1
102
RTVSPropertyOp11
 70
     1
102
RTVSPropertyOp12
 70
     1
102
RTVSPropertyOp13
 70
     1
102
RTVSPropertyOp14
 70
     1
102
RTVSPropertyOp15
 70
     1
102
RTVSPropertyOp16
 70
     1
102
RTVSPropertyOp17
 70
     1
102
RTVSPropertyOp18
 70
     1
102
RTVSPropertyOp19
 70
     1
102
RTVSPropertyOp20
 70
     1
102
RTVSPropertyOp21
 70
     1
102
RTVSPropertyOp22
 70
     1
102
RTVSPropertyOp23
 70
     1
102
RTVSPropertyOp24
 70
     1
102
RTVSPropertyOp25
 70
     1
102
RTVSPropertyOp26
 70
     1
102
RTVSPropertyOp27
 70
     1
102
RTVSPropertyOp28
 70
     1
102
RTVSPropertyOp29
 70
     1
102
RTVSPropertyOp30
 70
     1
102
RTVSPropertyOp31
 70
     1
102
RTVSPropertyOp32
 70
     1
  0
XRECORD
  5
668
102
{ACAD_REACTORS
330
667
102
}
330
667
100
AcDbXrecord
280
     1
102
RTVSPropertyOp0
 70
     1
102
RTVSPropertyOp1
 70
     1
102
RTVSPropertyOp2
 70
     1
102
RTVSPropertyOp3
 70
     1
102
RTVSPropertyOp4
 70
     1
102
RTVSPropertyOp5
 70
     1
102
RTVSPropertyOp6
 70
     1
102
RTVSPropertyOp7
 70
     1
102
RTVSPropertyOp8
 70
     1
102
RTVSPropertyOp9
 70
     1
102
RTVSPropertyOp10
 70
     1
102
RTVSPropertyOp11
 70
     1
102
RTVSPropertyOp12
 70
     1
102
RTVSPropertyOp13
 70
     1
102
RTVSPropertyOp14
 70
     1
102
RTVSPropertyOp15
 70
     1
102
RTVSPropertyOp16
 70
     1
102
RTVSPropertyOp17
 70
     1
102
RTVSPropertyOp18
 70
     1
102
RTVSPropertyOp19
 70
     1
102
RTVSPropertyOp20
 70
     1
102
RTVSPropertyOp21
 70
     1
102
RTVSPropertyOp22
 70
     1
102
RTVSPropertyOp23
 70
     1
102
RTVSPropertyOp24
 70
     1
102
RTVSPropertyOp25
 70
     1
102
RTVSPropertyOp26
 70
     1
102
RTVSPropertyOp27
 70
     1
102
RTVSPropertyOp28
 70
     1
102
RTVSPropertyOp29
 70
     1
102
RTVSPropertyOp30
 70
     1
102
RTVSPropertyOp31
 70
     1
102
RTVSPropertyOp32
 70
     1
  0
XRECORD
  5
64C
102
{ACAD_REACTORS
330
64B
102
}
330
64B
100
AcDbXrecord
280
     1
102
RTVSPropertyOp0
 70
     1
102
RTVSPropertyOp1
 70
     1
102
RTVSPropertyOp2
 70
     1
102
RTVSPropertyOp3
 70
     1
102
RTVSPropertyOp4
 70
     1
102
RTVSPropertyOp5
 70
     1
102
RTVSPropertyOp6
 70
     1
102
RTVSPropertyOp7
 70
     1
102
RTVSPropertyOp8
 70
     1
102
RTVSPropertyOp9
 70
     1
102
RTVSPropertyOp10
 70
     1
102
RTVSPropertyOp11
 70
     1
102
RTVSPropertyOp12
 70
     1
102
RTVSPropertyOp13
 70
     1
102
RTVSPropertyOp14
 70
     1
102
RTVSPropertyOp15
 70
     1
102
RTVSPropertyOp16
 70
     1
102
RTVSPropertyOp17
 70
     1
102
RTVSPropertyOp18
 70
     1
102
RTVSPropertyOp19
 70
     1
102
RTVSPropertyOp20
 70
     1
102
RTVSPropertyOp21
 70
     1
102
RTVSPropertyOp22
 70
     1
102
RTVSPropertyOp23
 70
     1
102
RTVSPropertyOp24
 70
     1
102
RTVSPropertyOp25
 70
     1
102
RTVSPropertyOp26
 70
     1
102
RTVSPropertyOp27
 70
     1
102
RTVSPropertyOp28
 70
     1
102
RTVSPropertyOp29
 70
     1
102
RTVSPropertyOp30
 70
     1
102
RTVSPropertyOp31
 70
     1
102
RTVSPropertyOp32
 70
     1
  0
XRECORD
  5
64E
102
{ACAD_REACTORS
330
64D
102
}
330
64D
100
AcDbXrecord
280
     1
102
RTVSPropertyOp0
 70
     1
102
RTVSPropertyOp1
 70
     1
102
RTVSPropertyOp2
 70
     1
102
RTVSPropertyOp3
 70
     1
102
RTVSPropertyOp4
 70
     1
102
RTVSPropertyOp5
 70
     1
102
RTVSPropertyOp6
 70
     1
102
RTVSPropertyOp7
 70
     1
102
RTVSPropertyOp8
 70
     1
102
RTVSPropertyOp9
 70
     1
102
RTVSPropertyOp10
 70
     1
102
RTVSPropertyOp11
 70
     1
102
RTVSPropertyOp12
 70
     1
102
RTVSPropertyOp13
 70
     1
102
RTVSPropertyOp14
 70
     1
102
RTVSPropertyOp15
 70
     1
102
RTVSPropertyOp16
 70
     1
102
RTVSPropertyOp17
 70
     1
102
RTVSPropertyOp18
 70
     1
102
RTVSPropertyOp19
 70
     1
102
RTVSPropertyOp20
 70
     1
102
RTVSPropertyOp21
 70
     1
102
RTVSPropertyOp22
 70
     1
102
RTVSPropertyOp23
 70
     1
102
RTVSPropertyOp24
 70
     1
102
RTVSPropertyOp25
 70
     1
102
RTVSPropertyOp26
 70
     1
102
RTVSPropertyOp27
 70
     1
102
RTVSPropertyOp28
 70
     1
102
RTVSPropertyOp29
 70
     1
102
RTVSPropertyOp30
 70
     1
102
RTVSPropertyOp31
 70
     1
102
RTVSPropertyOp32
 70
     1
  0
XRECORD
  5
650
102
{ACAD_REACTORS
330
64F
102
}
330
64F
100
AcDbXrecord
280
     1
102
RTVSPropertyOp0
 70
     1
102
RTVSPropertyOp1
 70
     1
102
RTVSPropertyOp2
 70
     1
102
RTVSPropertyOp3
 70
     1
102
RTVSPropertyOp4
 70
     1
102
RTVSPropertyOp5
 70
     1
102
RTVSPropertyOp6
 70
     1
102
RTVSPropertyOp7
 70
     1
102
RTVSPropertyOp8
 70
     1
102
RTVSPropertyOp9
 70
     1
102
RTVSPropertyOp10
 70
     1
102
RTVSPropertyOp11
 70
     1
102
RTVSPropertyOp12
 70
     1
102
RTVSPropertyOp13
 70
     1
102
RTVSPropertyOp14
 70
     1
102
RTVSPropertyOp15
 70
     1
102
RTVSPropertyOp16
 70
     1
102
RTVSPropertyOp17
 70
     1
102
RTVSPropertyOp18
 70
     1
102
RTVSPropertyOp19
 70
     1
102
RTVSPropertyOp20
 70
     1
102
RTVSPropertyOp21
 70
     1
102
RTVSPropertyOp22
 70
     1
102
RTVSPropertyOp23
 70
     1
102
RTVSPropertyOp24
 70
     1
102
RTVSPropertyOp25
 70
     1
102
RTVSPropertyOp26
 70
     1
102
RTVSPropertyOp27
 70
     1
102
RTVSPropertyOp28
 70
     1
102
RTVSPropertyOp29
 70
     1
102
RTVSPropertyOp30
 70
     1
102
RTVSPropertyOp31
 70
     1
102
RTVSPropertyOp32
 70
     1
  0
XRECORD
  5
652
102
{ACAD_REACTORS
330
651
102
}
330
651
100
AcDbXrecord
280
     1
102
RTVSPropertyOp0
 70
     1
102
RTVSPropertyOp1
 70
     1
102
RTVSPropertyOp2
 70
     1
102
RTVSPropertyOp3
 70
     1
102
RTVSPropertyOp4
 70
     1
102
RTVSPropertyOp5
 70
     1
102
RTVSPropertyOp6
 70
     1
102
RTVSPropertyOp7
 70
     1
102
RTVSPropertyOp8
 70
     1
102
RTVSPropertyOp9
 70
     1
102
RTVSPropertyOp10
 70
     1
102
RTVSPropertyOp11
 70
     1
102
RTVSPropertyOp12
 70
     1
102
RTVSPropertyOp13
 70
     1
102
RTVSPropertyOp14
 70
     1
102
RTVSPropertyOp15
 70
     1
102
RTVSPropertyOp16
 70
     1
102
RTVSPropertyOp17
 70
     1
102
RTVSPropertyOp18
 70
     1
102
RTVSPropertyOp19
 70
     1
102
RTVSPropertyOp20
 70
     1
102
RTVSPropertyOp21
 70
     1
102
RTVSPropertyOp22
 70
     1
102
RTVSPropertyOp23
 70
     1
102
RTVSPropertyOp24
 70
     1
102
RTVSPropertyOp25
 70
     1
102
RTVSPropertyOp26
 70
     1
102
RTVSPropertyOp27
 70
     1
102
RTVSPropertyOp28
 70
     1
102
RTVSPropertyOp29
 70
     1
102
RTVSPropertyOp30
 70
     1
102
RTVSPropertyOp31
 70
     1
102
RTVSPropertyOp32
 70
     1
  0
XRECORD
  5
666
102
{ACAD_REACTORS
330
665
102
}
330
665
100
AcDbXrecord
280
     1
102
RTVSPropertyOp0
 70
     1
102
RTVSPropertyOp1
 70
     1
102
RTVSPropertyOp2
 70
     1
102
RTVSPropertyOp3
 70
     1
102
RTVSPropertyOp4
 70
     1
102
RTVSPropertyOp5
 70
     1
102
RTVSPropertyOp6
 70
     1
102
RTVSPropertyOp7
 70
     1
102
RTVSPropertyOp8
 70
     1
102
RTVSPropertyOp9
 70
     1
102
RTVSPropertyOp10
 70
     1
102
RTVSPropertyOp11
 70
     1
102
RTVSPropertyOp12
 70
     1
102
RTVSPropertyOp13
 70
     1
102
RTVSPropertyOp14
 70
     1
102
RTVSPropertyOp15
 70
     1
102
RTVSPropertyOp16
 70
     1
102
RTVSPropertyOp17
 70
     1
102
RTVSPropertyOp18
 70
     1
102
RTVSPropertyOp19
 70
     1
102
RTVSPropertyOp20
 70
     1
102
RTVSPropertyOp21
 70
     1
102
RTVSPropertyOp22
 70
     1
102
RTVSPropertyOp23
 70
     1
102
RTVSPropertyOp24
 70
     1
102
RTVSPropertyOp25
 70
     1
102
RTVSPropertyOp26
 70
     1
102
RTVSPropertyOp27
 70
     1
102
RTVSPropertyOp28
 70
     1
102
RTVSPropertyOp29
 70
     1
102
RTVSPropertyOp30
 70
     1
102
RTVSPropertyOp31
 70
     1
102
RTVSPropertyOp32
 70
     1
  0
XRECORD
  5
65C
102
{ACAD_REACTORS
330
65B
102
}
330
65B
100
AcDbXrecord
280
     1
102
RTVSPropertyOp0
 70
     1
102
RTVSPropertyOp1
 70
     1
102
RTVSPropertyOp2
 70
     1
102
RTVSPropertyOp3
 70
     1
102
RTVSPropertyOp4
 70
     1
102
RTVSPropertyOp5
 70
     1
102
RTVSPropertyOp6
 70
     1
102
RTVSPropertyOp7
 70
     1
102
RTVSPropertyOp8
 70
     1
102
RTVSPropertyOp9
 70
     1
102
RTVSPropertyOp10
 70
     1
102
RTVSPropertyOp11
 70
     1
102
RTVSPropertyOp12
 70
     1
102
RTVSPropertyOp13
 70
     1
102
RTVSPropertyOp14
 70
     1
102
RTVSPropertyOp15
 70
     1
102
RTVSPropertyOp16
 70
     1
102
RTVSPropertyOp17
 70
     1
102
RTVSPropertyOp18
 70
     1
102
RTVSPropertyOp19
 70
     1
102
RTVSPropertyOp20
 70
     1
102
RTVSPropertyOp21
 70
     1
102
RTVSPropertyOp22
 70
     1
102
RTVSPropertyOp23
 70
     1
102
RTVSPropertyOp24
 70
     1
102
RTVSPropertyOp25
 70
     1
102
RTVSPropertyOp26
 70
     1
102
RTVSPropertyOp27
 70
     1
102
RTVSPropertyOp28
 70
     1
102
RTVSPropertyOp29
 70
     1
102
RTVSPropertyOp30
 70
     1
102
RTVSPropertyOp31
 70
     1
102
RTVSPropertyOp32
 70
     1
  0
XRECORD
  5
664
102
{ACAD_REACTORS
330
663
102
}
330
663
100
AcDbXrecord
280
     1
102
RTVSPropertyOp0
 70
     1
102
RTVSPropertyOp1
 70
     1
102
RTVSPropertyOp2
 70
     1
102
RTVSPropertyOp3
 70
     1
102
RTVSPropertyOp4
 70
     1
102
RTVSPropertyOp5
 70
     1
102
RTVSPropertyOp6
 70
     1
102
RTVSPropertyOp7
 70
     1
102
RTVSPropertyOp8
 70
     1
102
RTVSPropertyOp9
 70
     1
102
RTVSPropertyOp10
 70
     1
102
RTVSPropertyOp11
 70
     1
102
RTVSPropertyOp12
 70
     1
102
RTVSPropertyOp13
 70
     1
102
RTVSPropertyOp14
 70
     1
102
RTVSPropertyOp15
 70
     1
102
RTVSPropertyOp16
 70
     1
102
RTVSPropertyOp17
 70
     1
102
RTVSPropertyOp18
 70
     1
102
RTVSPropertyOp19
 70
     1
102
RTVSPropertyOp20
 70
     1
102
RTVSPropertyOp21
 70
     1
102
RTVSPropertyOp22
 70
     1
102
RTVSPropertyOp23
 70
     1
102
RTVSPropertyOp24
 70
     1
102
RTVSPropertyOp25
 70
     1
102
RTVSPropertyOp26
 70
     1
102
RTVSPropertyOp27
 70
     1
102
RTVSPropertyOp28
 70
     1
102
RTVSPropertyOp29
 70
     1
102
RTVSPropertyOp30
 70
     1
102
RTVSPropertyOp31
 70
     1
102
RTVSPropertyOp32
 70
     1
  0
ENDSEC
  0
EOF
